<?xml version="1.0" standalone="no"?>
<!DOCTYPE svg PUBLIC "-//W3C//DTD SVG 1.1//EN" "http://www.w3.org/Graphics/SVG/1.1/DTD/svg11.dtd" >
<svg xmlns="http://www.w3.org/2000/svg">
<metadata></metadata>
<defs>
<font id="highvoltage_roughregular" horiz-adv-x="918" >
<font-face units-per-em="2048" ascent="1638" descent="-410" />
<missing-glyph horiz-adv-x="401" />
<glyph horiz-adv-x="0" />
<glyph unicode="&#xd;" horiz-adv-x="600" />
<glyph unicode=" "  horiz-adv-x="401" />
<glyph unicode="&#x09;" horiz-adv-x="401" />
<glyph unicode="&#xa0;" horiz-adv-x="401" />
<glyph unicode="!" horiz-adv-x="463" d="M171 1594q11 0 11 -6l59 6h52q76 -7 76 -58v-576q-29 -576 -59 -576q-22 -17 -52 -17h-52q-70 0 -70 157q-23 242 -23 296v12q0 29 -12 29q0 45 6 163q-6 364 -6 454q0 83 41 105q19 11 29 11zM235 1396v-5h17v5h-17zM281 1396v-11h6v11h-6zM200 1373v-6q6 -11 6 -17h6 v23h-12zM212 1251v-6h17v6h-17zM182 1216v-12h12v12h-12zM258 1152v-6h12v6h-12zM287 1094v-12q12 0 12 12h-12zM246 1036v-12h30v12h-30zM194 977q2 -11 12 -11h6v11h-18zM206 960v-6h11v6h-11zM270 908v-12h6v12h-6zM246 879v-6h12v6h-12zM264 785v-5h12v5h-12zM212 262 q19 0 29 -6l35 6h17q76 -15 76 -70v-116q-8 -76 -59 -76h-168q-18 0 -41 76v58q0 128 70 128h41z" />
<glyph unicode="&#x22;" horiz-adv-x="801" d="M192 1888q15 0 47 -6q36 6 81 6q64 -14 64 -58q-150 -406 -180 -419q-10 -6 -23 -6h-93q-19 8 -41 52q58 229 58 332q30 99 87 99zM559 1888h23q20 0 29 -6l35 6h41q64 -18 64 -35v-17q0 -30 -157 -408q-25 -23 -47 -23h-75q-53 8 -53 52q53 242 76 390q30 41 64 41z" />
<glyph unicode="#" horiz-adv-x="1199" d="M337 1594q12 0 64 -6l11 6q99 0 99 -58v-378q102 -18 122 -18q53 0 64 35q-6 240 -6 355q20 64 64 64q46 0 82 -6q32 6 64 6q52 -27 52 -64v-372h6q140 -13 140 -47v-168q-8 -53 -53 -53h-93v-174q146 -12 146 -53v-163q0 -51 -76 -58h-70v-378q-9 -64 -64 -64h-139 q-47 0 -59 64v122l6 35l-6 12q6 91 6 134q0 33 -17 75h-169v-366q0 -76 -64 -76h-145q-45 0 -53 58v6q0 19 6 29q-6 40 -12 52q6 60 6 94v75q0 42 -11 128h-76q-64 0 -64 93v64q0 111 122 111q29 10 29 41v81l-11 52h-64q-76 0 -76 82v105q0 81 128 81l23 29v180l6 35 l-12 35q0 163 82 163h12zM825 1425l29 -5l6 11q0 12 -11 12h-6q-9 0 -18 -18zM785 1420v-6h11v6h-11zM406 1402v-11h12q0 11 -12 11zM337 1356v-6l40 -6q0 15 -23 17q-11 -5 -17 -5zM790 1297v-5h12v5h-12zM331 1233v-11h17q0 11 -11 11h-6zM360 1233v-5l29 -6v11h-29z M843 1233v-5h17v5h-17zM843 1216v-6h11v6h-11zM325 1187l23 -23v23q0 12 -11 12q-12 -2 -12 -12zM767 1164v-24h6v24h-6zM337 1100v-12h5q4 8 70 47q0 11 -6 11l-11 6q-43 -18 -58 -52zM837 1105v-23h6l29 6q9 -23 17 -23h6q0 6 6 17q-23 10 -23 35h-29q-12 -2 -12 -12z M302 1111l-6 -11v-12q2 -12 11 -12q12 6 18 6v6q0 9 -23 23zM435 1105q2 -11 12 -11v11h-12zM371 1082q0 -17 -17 -17v-6h41v6q-18 0 -18 17h-6zM773 1076v-11h6v11h-6zM808 1071q0 -12 -35 -12l6 -12l11 6h6q26 -17 41 -17q0 11 17 11v12q-43 12 -46 12zM406 1065 q0 -18 -23 -18v-11q22 0 52 -29l6 11q-25 47 -35 47zM627 1065v-12h6v12h-6zM883 1059v-12h12v12h-12zM360 1047v-6h11v6h-11zM761 1047v-6h12v6h-12zM907 1041q-12 -18 -12 -29l18 -11q11 17 17 40h-23zM302 1041q0 -13 -24 -58v-29h47q0 12 6 12l-6 11q17 30 17 47v6 q-14 0 -29 11h-11zM482 1041v-11h6v11h-6zM261 1036v-12q12 0 12 12h-12zM721 1024v-17q26 0 46 -47h6l41 6v23l-29 -6q-24 42 -24 53h-29q-11 -2 -11 -12zM942 1036v-18q11 0 11 12v6h-11zM354 1030v-6q0 -17 17 -17q0 -20 -17 -41q12 -13 12 -35h5q0 35 30 35q0 15 17 35 q-29 0 -29 29h-35zM837 1012v-11h6q11 0 11 11v12h-5q-12 -2 -12 -12zM476 1012l-6 -11h18q0 11 -12 11zM552 995v-23h23l6 29v6h-18q-11 -2 -11 -12zM913 995v-6h11v-12h-11v-5q9 0 23 -12h6v6l-6 11q11 19 11 30q-19 -12 -34 -12zM447 995v-12h6v12h-6zM430 989v-17h11v17 h-11zM697 989v-12h12v12h-12zM814 937q5 -10 5 -24l-29 6l-11 -17q2 -12 11 -12l29 6q19 -12 30 -12v35l5 35q-5 11 -5 18q-9 0 -35 -35zM389 954v-41h6q23 0 23 35q-19 0 -29 6zM331 919v-6l29 -5v17zM307 902q9 -23 18 -23q12 0 12 11v18zM441 902v-18h6v18h-6zM511 884 v-168q28 0 70 -18q110 0 110 41q0 67 6 93q-8 33 -23 58q-141 -6 -163 -6zM441 879v-12q2 -12 12 -12h12v6q0 8 -18 18h-6zM331 844v-24l6 -11q11 6 17 6v29q0 11 -12 11q-11 -2 -11 -11zM430 849q1 -11 11 -11v11h-11zM767 832v-12h6v12h-6zM383 797v-6q2 -11 12 -11l6 11 v6h-18zM819 768v-17h12v29q-12 -2 -12 -12zM319 762v-17h23v23h-5q-12 -6 -18 -6zM814 704v-6h5q53 27 53 47q-6 11 -6 17zM383 727q2 -11 12 -11h6l11 5q-6 12 -6 18h-11q-12 -2 -12 -12zM750 716q1 -12 11 -12h12q12 0 12 12h-35zM878 675v-6h35v6h-35zM435 663 q0 -6 -5 -17q9 0 23 -12v6l-6 12q12 0 12 11h-24zM744 652v-29h6l64 17q0 12 -12 12l-41 -6q-6 11 -6 17q-11 -2 -11 -11zM907 657v-11h6v11h-6zM337 652l-6 -12v-12h17l29 -5l12 17l-12 6l-29 -6q0 12 -11 12zM854 646q-5 -10 -5 -23v-18h17l-6 12l12 6q6 -12 6 -18h11v18 q-5 23 -35 23zM488 646v-12h6v12h-6zM831 646v-18h6v18h-6zM441 628l6 -29h6v29h-12zM703 628v-11h6v11h-6zM255 623v-18h6v18h-6zM534 623v-6q2 -12 12 -12q12 0 12 12l-12 6h-12zM750 588v-24q1 -11 11 -11h6q18 30 18 35h5l12 -6l17 23l-5 12q-31 0 -64 -29zM913 617 l11 -18v-11l-17 -24v-5q0 -9 17 -18q11 6 18 6l-6 12q29 23 29 40l-29 18h-23zM488 599l6 -11v-35q11 0 29 -29q0 46 23 46v6h-23v-12h-12v24l6 11l-12 6h-6zM715 605v-12h11v12h-11zM273 599v-6q0 -23 46 -29l6 35l-12 -6l-35 6h-5zM354 559q0 -6 6 -6l-6 -29v-6 q0 -9 17 -18q53 0 53 47q24 12 35 12l-6 29h-6q-93 -16 -93 -29zM575 588v-12q0 -9 23 -23q12 0 12 11q-15 0 -17 24h-18zM657 582v-18h5v18h-5zM709 582v-6q6 -11 6 -17h6l5 23h-17zM866 576q0 -6 -6 -17h12q0 6 6 17h-12zM307 559q-11 -19 -11 -30q6 -11 6 -17h5 q0 13 18 35zM814 535l17 -11h12q0 19 6 29l-12 6q-9 0 -23 -24zM686 547v-6h23v6h-23zM761 512v-6q26 0 35 35l-11 6q-8 0 -24 -35zM849 518q1 -12 11 -12v12h-11zM907 500v-5h29v5h-29zM435 495q0 -30 -17 -30v-5h29v35h-12zM802 471q17 -6 17 -11v-18l24 -6l6 12v6 q-18 22 -18 35h-12q-8 0 -17 -18zM296 483v-6h11v6h-11zM331 477v-6q0 -11 17 -11q11 5 18 5q0 12 -12 12h-23zM371 471q2 -11 12 -11h23v17h-5zM761 465v-34h6q29 15 29 23q0 11 -11 11h-24zM831 413v-12h6v12h-6zM342 407v-6h12v6h-12zM406 396l-5 -24h23l-6 12 q12 0 12 12h-24zM354 337v-11h12q0 11 -12 11zM814 303v-6l29 -6v12h-29zM366 256v-12h5v12h-5zM808 215h23q0 12 -12 12q-11 -2 -11 -12zM337 209v-5h11v5h-11zM418 209l-12 -46h18v46h-6z" />
<glyph unicode="$" horiz-adv-x="917" d="M355 1744l41 -6q51 6 83 6q71 -13 71 -59v-100l141 -112q83 -109 83 -219v-165q-12 -59 -59 -59h-136q-71 12 -71 94l6 24q0 6 -6 6l6 41v30q-22 106 -106 106q-69 0 -82 -89v-70q0 -132 206 -266q242 -169 242 -407v-165q0 -215 -224 -325v-118q-12 -59 -59 -59h-154 q-53 0 -53 83l6 41q0 53 -112 106q-112 110 -112 266v88q0 25 -6 65q0 65 118 65h77q71 0 71 -59v-142q0 -82 88 -100q94 28 94 77q6 0 6 29q0 36 -6 107q6 31 6 53q-23 85 -106 159q-184 128 -283 254l-65 165v147q31 193 94 242q136 99 136 136v18q0 21 -6 53q0 51 71 59z M396 1561v-12h6v12h-6zM449 1461h-17q-20 23 -53 23h-12q-9 0 -18 -17v-12h36q13 0 23 -6q12 6 18 6l6 -12l12 6q11 -24 41 -24q-12 20 -12 30h12v-12h12l-6 30l6 29q-48 0 -48 -41zM308 1443l18 -12h11v12q0 12 -11 12h-6q-12 -2 -12 -12zM491 1431v-12h6v12h-6zM503 1408 v-18h17v29h-6q-11 -1 -11 -11zM219 1307q2 -11 12 -11h6q12 0 12 11h-30zM591 1278v-6h18v6h-18zM172 1142v-18h6q11 6 18 6v6zM172 1054h12v11q-12 -1 -12 -11zM272 1030v-6h12v6h-12zM361 877q2 -12 12 -12h12v23q-15 -11 -24 -11zM396 859h12v12q-12 -2 -12 -12zM420 806 v-12h6v12h-6zM508 758v-11q24 0 42 -12l6 12v11q-7 0 -18 -5zM491 694q2 -12 12 -12h5q9 0 18 17q0 12 -12 12h-6q-8 0 -17 -17zM562 711q-6 -31 -6 -35h6q8 0 17 18q-12 0 -12 17h-5zM615 546v-6h11v6h-11zM632 487v-6q0 -8 18 -18v24h-18zM632 399v-12h6v12h-6zM190 369 v-6h12v18q-12 -2 -12 -12zM632 345v-5h12v5h-12zM261 269v-36h6q23 9 23 18v12zM219 192q0 -6 -6 -18h18v18h-12zM308 192v-18q12 0 12 -6l-6 -11q6 -12 6 -18h6q0 12 29 29v6q-20 0 -47 18zM544 180q2 -12 12 -12h17v6q0 9 -17 18q-12 -2 -12 -12zM414 157l-6 -24h24v24 h-18zM597 145v-12h6v12h-6zM567 133v-6h12v6h-12zM349 121v-18l30 -5q11 5 17 5q-6 11 -6 24zM432 121q2 -12 12 -12h11v12h-23zM491 121q0 -12 -30 -29q-6 -11 -6 -24l6 -12q40 24 53 24v29q0 12 -11 12h-12zM320 86l6 -12l-6 -12l11 -6h12v30h-23zM373 80v-12h23 q0 12 -11 12h-12zM402 27q1 -8 30 -24l17 24q-6 0 -17 6zM461 33v-6h12v6h-12z" />
<glyph unicode="%" horiz-adv-x="1840" d="M1029 1594q12 0 64 -6q59 6 93 6q27 0 52 -52q-349 -1497 -366 -1525q-30 -17 -47 -17h-151q-38 0 -58 52q40 130 93 408q39 84 69 267l70 291q76 285 111 501q33 75 70 75zM383 1588h41q131 -16 197 -69q140 -116 140 -274q0 -238 -268 -349q-78 -12 -99 -12 q-198 0 -308 204q-29 68 -29 93v99q0 117 128 227q103 81 198 81zM389 1437q5 -11 5 -17h12l6 23l-12 6q-11 -2 -11 -12zM488 1431v-6q5 -17 34 -17v6q0 8 -17 17h-17zM1110 1414v-12h6v12h-6zM290 1373v-17q11 0 11 11zM1081 1373v-12h6v12h-6zM313 1239q21 -99 99 -99 q87 33 87 105q-27 82 -87 82h-29q-57 0 -70 -88zM197 1309v-6h11v6h-11zM1052 1292h12v11q-12 -2 -12 -11zM650 1239v-11h6v11h-6zM1058 1239v-6q6 -11 6 -17h5v23h-11zM581 1228v-12q1 -12 11 -12h6q12 0 12 12v12l-12 -6q-11 6 -17 6zM162 1187l-6 -12q2 -11 12 -11 q0 11 23 11v6zM598 1187v-18h6q12 0 12 12v6h-18zM197 1175v-11h5v11h-5zM1040 1158v-12h6v12h-6zM255 1140l11 -5h6v17h-6q-11 -2 -11 -12zM965 1146v-11h5q12 5 18 5v6h-23zM522 1105q6 -11 6 -17h12q0 17 17 17q0 12 -11 12h-12q-12 -2 -12 -12zM290 1065h17v23 q-9 0 -17 -23zM435 1065v-6q12 0 12 12v5q-12 -1 -12 -11zM232 1059v-12h5v12h-5zM970 1041h18q12 0 12 12v6h-12q-8 0 -18 -18zM272 1030q3 -12 29 -23v23q0 11 -11 11h-6q-12 -1 -12 -11zM482 1041v-11h6v11h-6zM988 1012q6 -11 6 -17h17q-6 11 -6 17h-17zM429 983v-11h6 v11h-6zM930 977v-11h6v11h-6zM947 960l-6 -12v-5h6q12 0 12 11zM912 855v-11h6l29 5v18h-6q-14 -12 -29 -12zM947 797v-12h6v12h-6zM895 768v-6h11v6h-11zM1407 704q6 0 17 -6l41 6q136 -20 239 -111q87 -112 87 -226v-18q0 -230 -250 -332q-47 -17 -99 -17h-18 q-188 0 -296 186q-35 43 -35 134q0 13 5 23l-5 35q28 161 93 227q119 76 157 76zM854 599v-11h12v11h-12zM854 529h6q12 0 12 12v18q-14 0 -18 -30zM1366 553v-29h23q12 0 12 11q0 12 -12 12q0 -12 -11 -12q-6 12 -6 18h-6zM1308 541v-17h29v11zM1558 489v-6l35 -6v29h-17 q-9 0 -18 -17zM866 483v-12h11v24q-11 -2 -11 -12zM1226 483v-12h6v12h-6zM1290 477q-5 -10 -5 -23h23q8 0 17 17v6h-35zM1587 471v-6q9 -23 18 -23v18q0 11 -12 11h-6zM1349 367v-18q19 -87 75 -87h35q59 0 76 81q0 78 -87 99h-24q-75 -19 -75 -75zM1616 442v-11h6v11h-6z M837 407v-6q1 -11 11 -11l6 11v6h-17zM1285 396h23v11h-12q-11 -2 -11 -11zM1634 401v-17q0 -8 35 -23l5 11v6q0 9 -23 23h-17zM1605 355v-6h17v6h-17zM1221 349v-6h11v6h-11zM1610 320v-6q10 0 24 -11q11 0 11 11v6h-35zM1267 268v-12h23v12q0 11 -11 11q-12 -2 -12 -11z M784 244v-11h6v11h-6zM1576 244l-6 -11q6 -10 6 -24h23l-6 12v12h12v6zM831 215v-11q11 0 11 11h-11zM1320 209v-29q1 -11 11 -11h6q12 0 12 29q-9 0 -24 11h-5zM1395 169q0 -29 -11 -29v-12h29v41h-18zM790 145v-5q12 0 12 11v6q-12 -2 -12 -12zM1506 134v-6q2 -12 11 -12 v18h-11z" />
<glyph unicode="&#x26;" horiz-adv-x="1221" d="M527 1594q118 0 250 -122q82 -101 82 -209v-99q0 -214 -210 -349v-12q10 -35 41 -35q13 0 23 -6q49 12 128 12h64q13 0 23 6q82 -15 82 -59v-128q0 -75 -76 -75v-87q13 -45 186 -268q59 -75 59 -99q0 -60 -70 -64h-169q-34 0 -116 99q-108 -99 -262 -99h-122 q-215 0 -309 180q-40 61 -46 123v5q0 76 -6 157q6 32 6 53l-6 11q0 75 87 222q83 69 99 110q0 19 -75 134q-35 97 -35 186v41q0 184 163 314q119 58 209 58zM492 1455q0 -9 23 -18l6 12v6q0 11 -11 11h-6q-12 -2 -12 -11zM591 1425v-5h12v5h-12zM638 1420l-6 -12h17 q0 12 -11 12zM614 1414v-6h12v6h-12zM678 1396v-11q12 0 12 11h-12zM597 1379v-18h11v18h-11zM690 1361v-11h6v11h-6zM370 1356v-6h17v6h-17zM347 1338v-17h5q9 0 18 17h-23zM416 1239v-58q0 -86 70 -163q66 0 111 111v35q0 145 -41 145q-20 23 -58 23q-68 0 -82 -93z M335 1292l-6 -12v-6q2 -11 12 -11l6 11v6q0 12 -12 12zM329 1239l12 -6v18q-12 -2 -12 -12zM690 1239v-17q0 -8 35 -35l6 29q-6 17 -12 17h-17v6h-12zM283 1088l11 -6l29 6v23h-17q-9 0 -23 -23zM690 1111v-40l35 5v6q-23 0 -23 29h-12zM649 1053v-6h18v6h-18zM672 1030 l12 -6l6 12v5h-6q-12 -1 -12 -11zM294 995h18v12h-6q-12 -2 -12 -12zM608 989v-6h12v6h-12zM399 954v-6q23 9 23 18h-11q-12 -2 -12 -12zM672 966v-12h6v12h-6zM533 948q9 -23 17 -23q29 8 29 18v5q-6 0 -17 -5zM399 943v-6l6 -12q-23 -9 -23 -17l-12 5h-6q0 -6 -6 -17 l41 -23q10 16 17 70h-17zM463 943l-12 -24l18 -11q0 5 6 5l-6 12l6 12zM498 919v-11q29 -21 29 -41l17 12v-6q24 8 24 17v23h-18l-29 -5q0 11 -11 11h-12zM434 867q45 -29 52 -29q6 7 6 35q-29 0 -29 11q6 12 6 18h-18q-17 -6 -17 -35zM591 884v-5h6q14 11 29 11 q0 12 -12 12q-23 -9 -23 -18zM510 855v-6q17 0 17 -17h6q0 17 11 17q2 -11 12 -11l6 11v6q-4 0 -35 6q-11 -6 -17 -6zM358 855v-6h18v6h-18zM416 838v-18l30 -40l5 -41h6q0 29 76 35v17q-29 0 -29 18l-12 -6h-12q-17 35 -64 35zM585 815v-6h18v17h-6q-12 -2 -12 -11z M358 815v-24h35l-6 12q12 0 12 12v5zM544 791v-29h6v29h-6zM562 780v-18q12 0 12 12zM376 774v-6h17v6h-17zM498 727l-29 6l-6 -12v-23h12q42 23 46 41v6zM405 739v-12h29q0 12 -12 12h-17zM638 739v-12h5v12h-5zM300 704v-12q30 0 35 18v17h-6q-29 -15 -29 -23zM568 692 v-11q2 -12 11 -12h18q0 9 -23 23h-6zM678 669q0 -12 29 -12l6 30h-6q-29 -8 -29 -18zM603 675q0 -15 -12 -29v-12q12 -14 12 -23q14 12 23 12v17q-12 13 -12 35h-11zM742 675v-6h18v6h-18zM416 652q-75 -51 -75 -221v-6q0 -163 99 -163q0 -6 64 -6h6q13 0 23 6q10 -6 23 -6 h6q93 0 93 58v18q0 21 -81 122q-116 168 -152 198h-6zM806 646q0 -18 -17 -18v-17h6q14 12 29 12v5q0 9 -18 18zM731 628v-11h17v-12q0 -8 -17 -17q-12 0 -12 17h-29q0 -12 -35 -58h41q23 29 40 29l6 -12l-35 -35q12 -1 12 -11l12 6h23q35 -4 35 -18v-6q-35 -21 -35 -52 l70 17l-6 30l29 52q12 -23 35 -23v11q-29 29 -29 47h-12v-18h-17l6 29h-41l-18 12q0 -6 -5 -6q-12 15 -12 29h-23zM876 617v-6h12q11 0 11 12v5h-11q-12 -1 -12 -11zM283 623v-6h11v6h-11zM835 623v-6q2 -12 12 -12v18h-12zM620 617v-18q2 -11 12 -11q11 5 17 5v6 q-23 0 -23 18h-6zM277 605v-12h11q0 12 -11 12zM841 599v-11h6v11h-6zM608 564v-5h12v5h-12zM789 541h11v-12q-11 0 -11 12zM713 489v-12h18l5 23h-11q-12 -1 -12 -11zM690 448v-6h12v6h-12zM254 431v-24h11q0 9 12 24v5h-6q-11 -5 -17 -5zM777 419v-23q0 -9 18 -18 q5 7 5 35q-13 0 -23 6zM824 349l11 -6q9 0 18 18q-6 10 -6 23q-23 -6 -23 -35zM766 378q0 -11 -18 -11v-6q9 0 23 -12q0 18 24 18v5zM783 337q14 -40 41 -40v17l-6 29h-23zM195 326h24v11h-12q-12 -1 -12 -11zM859 320l11 -6h6v18h-6q-11 -2 -11 -12zM760 320v-12h6v12h-6z M760 297v-6q17 0 17 -35h12q11 0 11 12v5q-17 0 -17 24h-23zM224 291v-6q6 -11 6 -17h18q-9 23 -18 23h-6zM830 273v-23q9 0 23 -11l6 11v12l-6 11q6 0 6 6l11 -6q12 0 12 12v6h-23q-19 -18 -29 -18zM719 285q0 -9 23 -17v17h-23zM254 233v-29q14 11 23 11l-6 29h-6 q-11 -1 -11 -11zM748 244v-5q12 -15 12 -24l29 6v-12h11v18q-29 0 -52 17zM830 204h11v11q-11 -2 -11 -11zM812 204v-6h12v6h-12zM254 198v-6h17v6h-17zM952 198v-12h6v12h-6zM620 192v-12h6v12h-6zM888 180v-5l23 -6l6 11h-29zM323 169v-12h6v12h-6zM905 157q9 -23 18 -23 q11 0 11 11v12h-29zM585 134v-6h23v17h-11q-12 -1 -12 -11zM527 99v-6h12q11 0 11 12v6h-11q-12 -2 -12 -12z" />
<glyph unicode="'" horiz-adv-x="500" d="M208 1888h23q19 0 29 -6l35 6h41q64 -18 64 -35v-17q0 -30 -157 -408q-25 -23 -47 -23h-76q-52 8 -52 52q52 242 76 390q30 41 64 41zM250 1825v-14h14v14h-14zM163 1775v-29h22v7q-7 14 -7 22h-15zM235 1753v-14h7v14h-7zM214 1746v-7h14v7h-14zM235 1732v-7 q7 -14 7 -22h36v7q-19 0 -43 22zM199 1674v-14h22v14h-22zM156 1660v-15h7v15h-7zM206 1610q8 -14 8 -22h7v36q-15 -2 -15 -14zM214 1509v-29q14 0 14 14q0 15 -14 15z" />
<glyph unicode="(" horiz-adv-x="579" d="M388 1809h29q69 -13 69 -58q-151 -501 -151 -958q0 -443 151 -964q-19 -52 -58 -52h-81q-51 0 -93 157q-122 261 -174 720q6 121 6 197l-6 35q35 341 81 493q119 377 163 413q3 0 64 17zM237 1089v-6h17v6h-17zM214 938v-11h5v11h-5zM260 868v-11h6v11h-6zM225 776v-6h12 v6h-12zM219 718v-12q12 0 12 12h-12zM208 503v-6h11v6h-11zM225 416l12 -6h11v6q0 11 -11 11q-12 -2 -12 -11zM260 270v-11h6v11h-6z" />
<glyph unicode=")" horiz-adv-x="579" d="M243 1792q44 -36 162 -413q47 -152 81 -493l-5 -35q0 -76 5 -197q-52 -459 -174 -720q-42 -157 -93 -157h-81q-38 0 -58 52q151 521 151 964q0 457 -151 958q0 45 70 58h29q61 -17 64 -17zM312 1089v-6h18v6h-18zM347 938v-11h6v11h-6zM301 868v-11h5v11h-5zM330 776v-6 h11v6h-11zM335 718q0 -12 12 -12v12h-12zM347 503v-6h12v6h-12zM330 427q-12 0 -12 -11v-6h12l11 6q0 9 -11 11zM301 270v-11h5v11h-5z" />
<glyph unicode="*" horiz-adv-x="973" d="M547 1600q75 -21 75 -70v-145h6q64 0 175 35h5q51 0 88 -187v-11q0 -57 -163 -87q-23 -12 -23 -18q98 -137 98 -157v-6q0 -50 -174 -145h-6q-35 0 -87 93q-6 0 -58 58q-96 -151 -140 -151q-39 0 -163 110l-6 29v6q0 25 76 128l12 41q-175 40 -175 105q41 192 99 192 q112 -35 122 -35h35q19 0 23 70q0 9 -6 69q0 76 187 76zM471 1460v-11h6v11h-6zM547 1443v-18h11v18h-11zM494 1367v-11l35 -47h18v6q-17 44 -41 52h-12zM430 1338v-6q9 0 24 -11h5v23zM541 1274l11 -17q0 -12 -11 -12h-18v6l6 12h-23q0 -30 -12 -30v-5q12 -15 12 -29h6 q30 0 52 34q11 -5 18 -5l11 17q-17 26 -17 52q8 0 17 18v17h-11q-38 -58 -41 -58zM355 1315l-6 -12h17q0 12 -11 12zM622 1303v-6q10 0 29 -40v-12q0 -12 -40 -17v-6q17 0 17 -12q-6 -11 -6 -17h24q5 0 40 46v6q-26 0 -35 52q-13 0 -23 6h-6zM360 1297v-11h6v11h-6z M488 1297q2 -11 12 -11v11h-12zM407 1280v-41h-29l-12 6l-6 -12l18 -23l-6 -29q8 0 18 -17v-35l23 -6l6 12l-6 34l11 6q12 -2 12 -11v-6l-6 -29q6 0 24 -35q11 6 17 6q0 -9 23 -24h6q10 0 29 47q23 -9 23 -18v-11q0 -12 -17 -12l6 -58h17q0 16 29 41v6q-17 0 -17 11 q12 23 29 23v12h-23l-12 -6l-6 12v17h-6l6 29v12q-9 0 -23 12h-17q0 -41 -24 -41q0 -29 -11 -29h-6q-9 0 -18 17v18l24 23q-50 0 -70 35h-18v12l35 17l6 -12l-6 -11l18 -12h17q0 13 6 23q0 14 -35 24l6 29l-12 6h-11q-12 -2 -12 -12zM587 1292v-6h12v6h-12zM314 1257v-12h29 q-6 10 -6 23h-11q-12 -1 -12 -11zM296 1251v-6h12v6h-12zM593 1210l-11 -17v-12h17q0 13 6 23zM611 1175q5 -11 5 -17h12v23h-6zM593 1140v-11h6v11h-6zM343 1105l-6 -11q29 -6 29 -23h12q13 0 17 29h-11zM413 1088q0 -11 -41 -64q8 -29 18 -29h5q10 81 47 81q0 12 -29 12z M483 1071l5 -12q-14 -12 -23 -12v-17h29q9 0 18 17q-18 15 -18 24h-11zM424 1018h12q0 18 12 18q0 -6 6 -6v6l-6 11q-24 -6 -24 -29zM576 1030q2 -12 11 -12h6q12 0 12 12h-29zM634 1001v-12h6v12h-6zM407 977v-5h23v5h-23z" />
<glyph unicode="+" horiz-adv-x="1053" d="M130 918q17 16 247 8l4 4q21 21 13 202q3 44 20 61l4 4q42 42 214 17l9 -8q23 -24 12 -227l4 -45l4 -4q6 -6 251 -4l25 -17q27 -27 8 -222l-12 -12q-27 -27 -231 -17l-45 -4q1 -254 -12 -267l-4 -4q-64 -41 -214 -8l-9 8q-31 71 -20 251q-14 13 -17 24q-233 -5 -259 21 q-33 33 -16 181q12 45 24 58zM521 1045l13 12l-9 9l-4 -4q-7 -10 0 -17zM258 749l8 -8l4 4l-8 8zM505 955q31 -10 37 -4l4 4q-4 4 -17 8l-20 29q-10 -31 -4 -37zM546 1012l4 -4l4 4q8 8 0 17l-4 4l-4 -4q-7 -10 0 -17zM357 831l4 -4l8 8l-4 4zM418 876l4 -4q10 -7 17 0l8 9 l-4 4q-8 8 -16 0zM332 765l12 -12l21 21l-12 12q-9 8 -17 0l-4 -4q-7 -10 0 -17zM398 798l24 -16q21 20 13 53q-19 -19 -37 -20q-7 -10 0 -17zM497 889q12 12 24 0q2 18 8 24l-12 13l-20 -21q-7 -9 0 -16zM394 753l8 -8q9 -7 16 0l4 4q9 8 0 16l-20 21q-1 -26 -8 -33z M488 872q6 -6 0 -24q-9 -10 -20 -13q-6 -21 -17 -33l17 -16q9 -7 16 0l8 8l5 29l16 16q9 7 16 0q-21 -71 -32 -82q43 -22 57 -8q6 6 25 0l8 -8q8 -9 -4 -21l8 -8l21 -4l4 -4l4 -13l12 13q-20 20 -24 41l-25 16l8 8l21 5l16 16l-8 8q-9 9 -54 -20l-4 4q-6 6 0 25q12 11 33 16 q-4 12 -8 16l-25 17l4 20l9 9l12 4l-8 8q-4 4 -50 -8q-3 -12 -8 -17q-6 7 -33 0zM554 938l12 -12l5 4l-13 12zM468 761q9 -7 16 0q8 8 0 17zM418 704l17 -17l8 8l-16 17zM480 749l8 -8l4 4l-8 8zM476 728l4 -12l8 -8l4 12q10 -7 17 0l-4 12l-8 9q-10 -10 -21 -13zM628 856 l4 -4l9 8l-5 4zM525 712q17 -17 -4 -37l21 -21q32 1 45 -12l8 8q7 7 0 33q-6 6 -29 -4q-3 20 -24 41q-5 -4 -17 -8zM678 823l8 -8l8 8l-8 8zM501 621l12 -12l4 4l-12 13zM653 757q39 -10 45 -4l17 16l-13 13q-6 6 -33 0q4 -4 0 -8q-8 8 -16 0q-7 -10 0 -17z" />
<glyph unicode="," horiz-adv-x="444" d="M148 198h23q19 0 29 -6l35 6h41q64 -18 64 -35v-17q0 -30 -157 -408q-25 -23 -47 -23h-76q-52 8 -52 52q52 242 76 390q30 41 64 41zM190 135v-14h14v14h-14zM103 85v-29h22v7q-7 14 -7 22h-15zM175 63v-14h7v14h-7zM154 56v-7h14v7h-14zM175 42v-7q7 -14 7 -22h36v7 q-19 0 -43 22zM139 -16v-14h22v14h-22zM96 -30v-15h7v15h-7zM146 -80q8 -14 8 -22h7v36q-15 -2 -15 -14zM154 -181v-29q14 0 14 14q0 15 -14 15z" />
<glyph unicode="-" horiz-adv-x="748" d="M164 925q73 0 134 -6q3 0 75 6q30 0 88 -6q90 6 109 6q64 -17 64 -35v-186q-26 -41 -58 -41h-418q-43 0 -58 70q0 192 52 192h12zM362 803v-6h23v6q0 12 -12 12q-11 -2 -11 -12zM292 774h12v11q-12 -1 -12 -11zM542 768q2 -12 12 -12q0 9 11 24h-11q-12 -2 -12 -12z M437 756v-5h12v5h-12z" />
<glyph unicode="." horiz-adv-x="420" d="M122 259q88 -3 146 -3q56 0 64 -52v-134q-6 -70 -58 -70h-163q-51 6 -36 119v69q-5 49 47 71z" />
<glyph unicode="/" horiz-adv-x="755" d="M297 1594h157q73 0 99 -46q0 -9 -169 -681q55 -18 70 -18h93q32 0 81 6q76 -9 76 -58q-291 -751 -314 -780q-23 -17 -53 -17h-81q-41 21 -41 76q39 137 70 337q9 0 29 111l-6 69h-209q-41 26 -41 76q134 704 151 873q31 52 88 52zM343 1455v-18q12 0 12 12zM419 1443v-6 q0 -9 23 -17v23h-23zM355 1431q2 -11 11 -11q12 0 12 11h-23zM343 1402v-11h6v11h-6zM384 1385l-6 -12l17 -12h6v6q0 9 -17 18zM366 1361q0 -17 -11 -17h-18l-17 12q-23 -21 -23 -53l11 -6l-6 -11v-6h18q8 0 23 29v6l-6 12q12 5 18 5l23 -11v11l-6 29h-6zM279 1274v-17h18 v17h-18zM372 1263v-12h6v12h-6zM256 1233v-5h17v5h-17zM308 1210v-6h29q0 9 -17 18q-12 -2 -12 -12zM267 1216v-6q24 -2 24 -35h11v6q-5 11 -5 18q5 0 5 5l-29 12h-6zM320 1158v-6q2 -12 11 -12h18v35h-12q-8 0 -17 -17zM262 1111v-6h5q14 0 24 6q14 0 35 -35l11 6 q-25 58 -35 58q-37 -15 -40 -29zM262 1036h40l-11 17q-29 -7 -29 -17zM256 1012v-11q23 0 23 -24h6v24q-12 14 -12 23h-6q-11 -2 -11 -12zM238 983l-11 -17h23v6q0 11 -12 11zM297 977l-6 -11l11 -6h12q12 0 12 12zM326 937v-12h11q0 12 -11 12zM285 908l12 -6l5 11v6h-5 q-12 -2 -12 -11zM221 826q29 0 41 35v6q-41 0 -41 -41zM267 797q0 -8 18 -17h12q11 0 11 11l-29 24q9 23 18 23q8 -23 17 -23h12q0 14 5 46q-5 0 -5 6q-59 -17 -59 -70zM215 815v-6h18v6h-18zM355 768l-6 -29l12 -6h5v23q0 12 -11 12zM297 756q0 -17 -18 -17q6 -35 18 -35 q0 29 17 29v23h-17zM320 739l6 -52h17v5q-6 12 -6 18q6 0 6 6q-12 0 -12 23h-11zM459 727v-11q2 -12 12 -12l29 6v6zM238 721v-11h12v11h-12zM395 716v-18h6v18h-6zM372 704v-6h12v6h-12zM413 698v-29h6v29h-6zM355 687q2 -12 11 -12h6q12 0 12 12h-29zM430 687v-18h6v18h-6 zM448 663v-23q11 0 29 -23h17v23q-32 23 -46 23zM541 663v-6h12v6h-12zM523 657v-11q12 0 12 11h-12zM326 634v-11h11v11h-11zM425 628q1 -11 11 -11h18q0 11 -12 11h-17zM343 623v-6q0 -7 47 -24v-11l-18 -29h29q0 9 12 23v12q0 20 -64 35h-6zM494 588v-18q64 19 64 35v6 h-11q-27 -23 -53 -23zM477 588v-12q12 0 12 12h-12zM448 570v-17q11 -15 11 -29h6v46h-17zM448 512q6 -23 6 -41q9 6 29 6v23l-12 -5v11h12q0 12 -12 12h-12zM384 483v-12h6v12h-6zM372 407v-6h12v6h-12zM425 372v-23h5v23h-5z" />
<glyph unicode="0" horiz-adv-x="917" d="M457 1594q256 0 339 -263q12 -63 12 -146v-759q0 -291 -205 -391q-86 -35 -163 -35q-129 0 -246 105q-99 127 -99 234q6 149 6 175q0 19 -6 99q0 5 6 35q-6 52 -6 64q6 142 6 181l-6 12q6 10 6 23v24q0 52 -6 70q6 51 6 87v158q0 93 93 222q130 105 234 105h29zM521 1472 v-6q2 -12 12 -12h18v6q0 12 -12 12h-18zM416 1466v-12q6 0 18 -6v12q-6 0 -18 6zM323 1448v-6h11v6h-11zM486 1442v-11h6v11h-6zM486 1425v-12h12v12h-12zM253 1361q2 -12 11 -12h12v12h-23zM299 1355v-6h12v6h-12zM679 1343q0 -6 -6 -17q9 -24 18 -24v29q0 12 -12 12z M358 1226v-858q25 -111 93 -111h6q38 0 82 70q6 162 6 269q0 27 -6 58q6 30 6 70v6q0 47 -6 111q12 29 12 41q-12 40 -12 70q0 53 6 193q0 4 -6 35q6 30 6 70v5q0 57 -100 82q-87 0 -87 -111zM200 1285v-6q2 -12 12 -12h11v12zM247 1226v-6h6q8 0 17 18h-11q-12 -2 -12 -12z M247 1203v-12h6v12h-6zM650 1197v-17h6v17h-6zM264 1150v-17h6v17h-6zM702 1133v-6h12v6h-12zM212 1104v-6q2 -12 11 -12h6q12 0 12 12l-12 6h-17zM223 1010v-6h12v6h-12zM276 987v-12h6v12h-6zM662 975v-6h11v6h-11zM212 952v-6h11v6h-11zM235 858v-5q12 0 12 11v6 q-12 -2 -12 -12zM720 870v-12h6v12h-6zM697 858v-17h11v6q0 11 -11 11zM685 812v-6q6 -11 6 -18h6v24h-12zM247 771v-12h6v12h-6zM697 759v-17h11v5q0 12 -11 12zM673 753v-11h12v11h-12zM188 677v-5h12v5h-12zM247 631v-6h23v11h-6q-11 -5 -17 -5zM183 607v-23q14 12 23 12 q0 11 -12 11h-11zM702 590q12 0 12 -18h6q12 0 12 12v6q0 11 -12 11h-6q-12 -1 -12 -11zM253 596l-6 -12q12 -19 12 -29h5v29q0 12 -11 12zM650 578v-6h12v6h-12zM247 543v-12h6v12h-6zM218 520v-6q4 -41 11 -41q12 6 18 6v6q-24 21 -24 35h-5zM638 455q2 -11 12 -11v23 q-12 -2 -12 -12zM679 461v-11h6v11h-6zM691 450v-24q11 0 11 12t-11 12zM212 426h17v12h-6q-11 -2 -11 -12zM212 420v-11h6v11h-6zM691 385v-11l29 6v11q-10 -6 -29 -6zM720 350q2 -11 12 -11v11h-12zM259 339v-30h17v6q-12 15 -12 24h-5zM632 339v-6h12v6h-12zM270 269 q-17 -23 -17 -35h6q29 4 29 17q0 8 -18 18zM580 239h17v18q-8 0 -17 -18zM609 228v-12q12 0 12 12h-12zM556 222v-12h6v12h-6zM323 210v-23l23 -6l6 12q0 13 -29 17zM393 210v-6q0 -8 17 -17v23h-17zM276 199v-6h18v6h-18zM545 169l23 -17h12v12h6q5 0 5 -6q11 6 24 6v11 q-9 0 -24 12q-46 -6 -46 -18zM422 158l-6 -30h18q0 10 11 24l-11 6h-12zM498 152v-6h18v6h-18zM364 128v-11h6v11h-6z" />
<glyph unicode="1" horiz-adv-x="725" d="M437 1594q82 -10 82 -58v-1263q39 -17 116 -23q35 -23 35 -52v-105q0 -93 -58 -93h-460q-52 33 -52 111q0 145 87 145q76 0 76 70v81q0 21 6 53q-12 29 -12 87q0 66 6 244q0 6 -6 18q6 31 6 52v274l-18 58q-26 -12 -75 -12h-12q-49 14 -52 122v53q0 73 110 99 q28 24 59 116q68 23 162 23zM356 1420h-29q0 -18 -18 -18l35 -23v-6q0 -8 -40 -29v-17q11 -2 11 -12q0 -20 -17 -41q11 -6 17 -6q27 12 29 24q-17 0 -17 11v6q0 5 17 18q-5 11 -5 17q30 47 40 47l29 -18h12v12q-23 16 -41 46h-6zM403 1344v-12h11q0 12 -11 12zM257 1309 q0 -10 -17 -29v-6h23l6 29zM362 1303v-6q2 -11 11 -11l-5 -29v-12q9 0 23 -12l12 18v12q-17 46 -24 46q-11 -6 -17 -6zM333 1222v-6h23v6q0 11 -12 11q-11 -1 -11 -11zM350 1169q0 -6 -6 -17h12q0 6 6 17h-12zM432 1030v-12h5v12h-5zM408 1001v-18q12 0 12 12v17 q-12 -1 -12 -11zM408 943v-24h6v24h-6zM397 855v-11h6v11h-6zM414 849v-11h6v11h-6zM350 832v-12h18v18q-12 -6 -18 -6zM373 727v-6h24v12h-6q-11 -6 -18 -6zM362 617q0 -13 -6 -24h23q-6 11 -6 24h-11zM356 436v-11h6v11h-6zM414 349v-6h12v6h-12zM397 279v-11h6v11h-6z M333 239l-6 -12v-12h29v18zM379 215q2 -11 12 -11h23v11q0 9 -17 18q-9 0 -18 -18zM449 221v-12h6v12h-6zM472 215v-11h6v11h-6zM269 180q0 6 -6 6v-17l12 6h5q3 -24 18 -24q0 10 29 35q-23 0 -23 23zM344 180v-11q6 -35 18 -35q0 19 6 29zM408 157q0 6 -5 6 q-12 -19 -12 -29l64 -23q0 8 17 17l12 -6v18h-35v17l6 12h-12q-19 -12 -35 -12zM292 145v-29h6v29h-6zM333 128v-6h29v6h-29z" />
<glyph unicode="2" horiz-adv-x="871" d="M435 1588l23 -11q3 0 23 6q126 -20 216 -99q93 -109 93 -256v-105q0 -291 -285 -506q-157 -142 -157 -250v-94q59 -17 87 -17q19 0 99 6q90 -6 157 -6l23 6q76 -13 76 -64v-128q-6 -70 -58 -70h-605q-41 25 -41 70q0 73 -6 215q6 48 12 58q0 6 -6 18q0 219 227 424 q221 188 221 320v117q0 76 -93 105h-24q-69 -18 -69 -70v-146q0 -81 -99 -81h-82q-81 0 -81 64l-6 29q0 6 6 17q-6 40 -6 64q0 107 76 251q118 133 279 133zM545 1425q-5 -30 -5 -34l11 -6q12 0 12 11v18q0 11 -12 11h-6zM481 1420v-29h12l6 29h-18zM295 1408v-6 q2 -11 12 -11q8 0 17 17h-29zM575 1402v-6q5 -11 5 -17l12 6q-6 11 -6 17h-11zM371 1396v-17h17v17h-17zM604 1379v-12h5v12h-5zM272 1361v-11h12q0 11 -12 11zM255 1350v-12h5v12h-5zM289 1350q2 -12 12 -12h6v12h-18zM656 1350v-12h12q0 12 -12 12zM249 1309v-17 q11 0 11 11v6h-11zM633 1280l11 -6h6v18h-6q-11 -2 -11 -12zM208 1257v-18h12v6q0 12 -12 12zM691 1123v-18h6v18h-6zM621 1094v-12h12v12h-12zM662 1012v-5h11v5h-11zM586 960v-12h6v12h-6zM633 919l11 -6q16 3 24 30h-6q-29 -16 -29 -24zM615 896v-12h6v12h-6zM534 855 q6 -11 6 -17q13 0 17 29l-12 6q-11 0 -11 -18zM534 826v-6h11v6h-11zM551 820v-5h18v5h-18zM383 628q0 -3 -6 -23l11 -6l12 18q0 11 -12 11h-5zM324 617v-18h6v18h-6zM278 576l11 -6l30 6v23q-41 -16 -41 -23zM348 588l11 -6v17q-11 -2 -11 -11zM191 460v-12h5v12h-5z M278 419v-6h11v6h-11zM185 378v-17h6v17h-6zM272 250v-6h12v6h-12zM284 204l-6 -53l11 -6h18v18l-12 41h-11zM388 198v-6h12v6h-12zM231 169h12v11q-12 -1 -12 -11zM435 175v-24h6v24h-6zM365 151q9 -23 18 -23h5v35q-23 -5 -23 -12zM487 157q2 -12 12 -12v12h-12zM220 151 v-11h11q0 11 -11 11zM633 145v-17h6q11 0 11 12l-11 5h-6zM237 134v-6h12v6h-12zM522 128v-12h6v12h-6zM295 111v-18h12q12 0 12 12v6h-24zM441 105v-6h29v12zM569 111v-6h11v6h-11z" />
<glyph unicode="3" horiz-adv-x="874" d="M367 1588h58q250 0 337 -250q12 -46 12 -99v-203q0 -138 -76 -233v-6q76 -106 76 -233v-197q0 -269 -279 -355q-8 -8 -82 -12q-196 0 -308 198q-29 77 -29 116v186q0 47 64 59h17q175 0 175 -53v-157q20 -81 87 -81h18q75 17 75 64l6 29q-6 30 -6 58q0 29 12 29 q0 198 -64 198q0 15 -70 23q-29 34 -29 58v128q0 67 105 82q29 0 58 104q0 16 -12 70l6 24q-6 41 -6 46l6 52q0 84 -105 99h-6q-75 -19 -75 -75v-157q-10 -64 -64 -64h-146q-52 0 -52 93q0 29 6 87q-6 49 -6 81q57 183 145 227q111 64 152 64zM361 1501v-12q12 0 12 12h-12z M402 1455v-12h5v12h-5zM419 1437h12v12q-12 -2 -12 -12zM355 1437v-12h6q12 0 12 12h-18zM396 1431v-17h11v17h-11zM466 1425q0 -40 23 -40q10 -6 23 -6v12q0 3 -35 34h-11zM524 1425q2 -11 11 -11h6q0 11 -11 11h-6zM541 1408q2 -12 12 -12h17v12h-29zM262 1367l29 -6 q12 0 12 12q0 8 -18 18q-9 0 -23 -24zM239 1373v-12h6v12h-6zM326 1367q2 -11 12 -11h17v5q0 12 -12 12q-11 -6 -17 -6zM512 1373v-12h6v12h-6zM559 1361v-17q2 -12 11 -12v29h-11zM594 1303h11v12q-11 -2 -11 -12zM210 1303v-23h5v23h-5zM611 1263l6 -12q-12 -2 -12 -12h12 l12 6l-6 12q6 11 6 17h-6q-12 -2 -12 -11zM215 1251v-12h6v12h-6zM634 1210v-11h6v11h-6zM652 1001q0 -12 -18 -12v-6h12q11 6 17 6v12h-11zM588 977v-17h29q0 8 -18 17h-11zM640 954v-11h6v11h-6zM599 913v-11h6v11h-6zM611 902v-18h6v18h-6zM634 902v-6h12v6h-12zM629 884 l-6 -29l11 -6q0 6 6 6q-6 10 -6 29h-5zM565 849v-11q11 0 11 11h-11zM530 809q0 -18 -18 -47l12 -6q13 12 41 12v17q-18 0 -35 24zM570 803v-6l41 -6h6v12q-6 0 -18 6zM565 751q0 -11 -35 -35l11 -6h6q21 17 47 17v12q-15 0 -29 12zM599 727v-6h18v6h-18zM565 704v-12h5v12 h-5zM646 640v-12h6v12h-6zM617 535q12 0 12 -17h11q0 9 12 23q0 12 -12 12h-6q-8 0 -17 -18zM623 489v-12q2 -12 11 -12l12 18l-12 6h-11zM611 425v-12h6v12h-6zM227 401v-17h6v17h-6zM611 343v-11h18q0 11 -12 11h-6zM210 326v-18q8 0 17 18h-17zM245 297v-6h11v6h-11z M640 291v-6h12v6h-12zM576 285v-12q12 0 12 12h-12zM565 262v-6h17v6h-17zM291 239v-6h12v6h-12zM576 221v-6h12v6h-12zM471 209v-5q2 -12 12 -12h6v17h-18zM268 204v-12h35v6l-29 6h-6zM361 198v-12h6v12h-6zM530 186l11 -6v18q-11 -2 -11 -12zM611 180v-5h12v5h-12z M466 169v-12q11 0 11 12h-11zM314 157q0 -12 -5 -12q5 -11 5 -17q10 0 18 29h-18zM442 157l-5 -12v-5h5q12 0 12 11zM518 140v-12q2 -12 12 -12h11v6q0 9 -23 18zM483 128v-12h6v12h-6z" />
<glyph unicode="4" horiz-adv-x="963" d="M546 1594h87l35 -6q11 6 24 6l11 -6q23 6 41 6q76 -17 76 -58v-966q75 -33 75 -75v-134q0 -64 -75 -64v-239q-8 -58 -59 -58h-162q-33 0 -41 93v6q0 55 6 134l-18 64h-75q-121 0 -367 -6q-45 0 -64 58l175 547q0 17 151 489q33 159 87 198q25 11 93 11zM564 1460 q5 -25 29 -29q0 24 23 24q18 0 47 -24q10 6 23 6v6q-32 0 -47 29q-67 -6 -75 -12zM535 1437v-6l5 -40q-7 0 -29 -30l18 -11q10 6 23 6q0 -6 12 -47l-12 -6q-3 0 -29 24v-6q0 -15 17 -41q0 -52 -52 -52l-17 11h-12q-12 -2 -12 -11v-24l18 12q29 -10 29 -29h6v17h17 q14 -11 23 -11q12 6 18 6v-6l-6 -35q4 0 52 -23q9 23 18 23q27 -35 41 -35v-12h5q8 0 24 35q-35 0 -35 35q-24 0 -24 12q6 0 6 6h-11l-12 -6q-9 29 -35 29q0 -12 -12 -12h-17v6q29 39 29 52h12l23 -23q2 12 12 12l11 -6q4 35 24 35q-6 44 -18 58q0 6 6 6q-6 8 -12 64 q12 0 12 11h-35l-29 -5v-12q0 -8 29 -23q-7 -29 -17 -29q-28 0 -35 58l-24 23h-5zM668 1402v-52q19 17 29 17v12q0 9 -23 23h-6zM476 1356v-6h12v17q-12 -2 -12 -11zM680 1338q0 -23 -17 -23q1 -12 11 -12h23q12 0 12 12zM593 1332h11q0 -9 12 -23l-17 -12h-6q-12 0 -12 12 v12q2 11 12 11zM447 1286v-12q12 0 12 12h-12zM500 1280q0 -6 -6 -6q6 -11 6 -17h23q0 6 6 17zM651 1251q0 -23 -18 -41l12 -6h6q23 24 35 24v11q-22 0 -35 12zM587 1245v-12h6v12h-6zM715 1216v-12h12q0 12 -12 12zM441 1193v-18q35 -29 35 -52q-8 0 -17 -18v-11h12 q36 46 46 46q-6 12 -6 18h-29zM680 1193v-12h6q11 0 11 12h-17zM412 1152q0 -17 -29 -17v-6q0 -9 24 -24q0 18 23 18l-6 29h-12zM436 1129v-12h5v12h-5zM622 1129v-6q2 -12 11 -12h12q0 9 -23 18zM540 1117q0 -16 -168 -547q54 -11 87 -11h46q51 0 64 52l-5 70v46q0 55 5 99 q-5 30 -5 70l5 58l-17 82l12 17q-18 44 -18 64h-6zM511 1111v-17h12v6q0 11 -12 11zM668 1105v-11h6v11h-6zM587 1088h12v12q-12 -2 -12 -12zM663 1053v-6h11v6h-11zM639 1018v-6h12v6h-12zM692 995q1 -12 11 -12l6 12v12h-6q-11 -2 -11 -12zM360 972v-6h12v6h-12zM709 931 v-6h12v6h-12zM709 908v-6q2 -12 12 -12l6 12l-12 6h-6zM692 803v-12h5v12h-5zM680 762v-6h12v6h-12zM284 745v-6h12v6h-12zM302 733v-17q11 0 11 11v18q-11 -2 -11 -12zM279 669q1 -12 11 -12h6v12h-17zM692 646l5 -12l-5 -11h17v29h-6zM215 640v-12q11 0 11 12h-11z M290 623v-6h18v6h-18zM319 623v-12h12v12h-12zM267 617v-12h6v12h-6zM313 582v-6h12v6h-12zM313 570v-11h6v11h-6zM255 553h24q0 11 -12 11q-12 -1 -12 -11zM680 559v-18h12v18h-12zM232 553v-12h6v12h-6zM290 541v-35q12 0 12 12v23h-12zM197 529v-11h6v11h-6zM703 529 l-17 -23v-6l29 -5v23q0 11 -12 11zM226 495v-6q12 0 12 -24h6l29 6q2 -11 11 -11l6 11q-11 15 -11 18q5 11 5 17l-11 6q-30 -17 -47 -17zM616 500q23 -1 23 -23q-11 -2 -11 -12l11 -5h6q0 11 23 29v11h-11l-12 -5q-6 11 -6 17h-11q-12 -2 -12 -12zM209 506v-6h11v6h-11z M325 489l-6 -12v-29h18q0 -12 -12 -12l6 -11l-6 -12l12 -6h11q0 12 6 12l-6 12v5h12v6q-16 47 -35 47zM569 465v-23q10 0 24 -11q8 23 17 23q-6 10 -6 23h-11q-14 -12 -24 -12zM674 454v-12l12 -17l-6 -29l12 -6h5l-5 29h11q9 0 18 -18v-17h-12q6 -11 6 -17h23q0 4 6 34 l-29 24l6 29q0 14 -24 17q-23 -8 -23 -17zM174 460v-6h11v6h-11zM377 460v-12h12v12h-12zM249 454v-12h6v12h-6zM639 454q-6 -31 -6 -35q12 0 12 12v23h-6zM296 448v-12h6v12h-6zM482 448q2 -12 12 -12v12h-12zM372 442v-11h17q0 11 -12 11h-5zM197 425v-6h18v6h-18z M226 419v-6q0 -17 23 -17h12v5q-23 0 -23 18h-12zM523 413v-6h12v6h-12zM645 396q0 -9 -12 -24v-11q18 -20 18 -35h17q6 20 6 23q-16 0 -23 47h-6zM505 361v-6h24v6h-24zM761 361v-12q12 0 12 12h-12zM697 337v-11l30 -6q13 29 29 29v6h-18q-21 -18 -41 -18zM663 314v-29h23 v18q0 11 -12 11h-11zM604 291v-6h12v6h-12zM616 273v-5h17v17h-5q-12 -2 -12 -12zM709 279v-17h12v6q0 11 -12 11zM674 233v-6h18v6h-18zM639 215q0 -8 24 -17v29q-15 -12 -24 -12z" />
<glyph unicode="5" horiz-adv-x="902" d="M205 1600q30 -12 122 -12h174q21 0 53 -5q23 11 64 11h70l35 6q87 -17 87 -70v-145q0 -47 -64 -58h-378v-175q288 0 372 -140q70 -95 70 -197v-478q0 -214 -262 -325q-79 -12 -99 -12q-180 0 -285 163q-33 50 -58 140l6 58v70q0 24 -6 64q0 48 81 64l29 -6q34 0 93 6 q59 -14 59 -53v-145q15 -99 93 -99h6q74 0 87 93q0 21 -6 52l6 12q0 12 -6 12l6 69v76q0 19 -6 29l6 35v116q-10 134 -99 134q-81 0 -93 -110q0 -31 -53 -41h-168q-8 0 -35 46q0 5 6 35q0 5 -6 140q0 41 11 41q-11 87 -11 151q6 142 6 157l-6 52q6 32 6 53q-6 60 -12 70 q10 116 105 116zM600 1484l12 -6v17q-12 -2 -12 -11zM403 1466q5 -35 17 -35h6v24q0 11 -12 11h-11zM356 1455v-12h12v12h-12zM600 1455q0 -10 24 -24l5 12v12h-29zM682 1455l-6 -12v-6h17v6q0 12 -11 12zM275 1443q0 -31 52 -35q0 -6 6 -6q11 0 11 12q0 8 -29 29h-40z M391 1425v-11h6v11h-6zM327 1396v-29h12v29h-12zM251 1373l6 -29h6q0 25 23 41l-11 6h-6q-9 0 -18 -18zM350 1391v-6h12v6h-12zM292 1315v-12q0 -8 17 -17h6v11q0 9 -17 18h-6zM275 1204l-6 -11q2 -12 11 -12h6v12q0 11 -11 11zM187 1164v-6h12v6h-12zM245 1100v-6h12 q12 0 12 11l-12 6q-12 -2 -12 -11zM275 1111v-6h11v6h-11zM333 1105l-6 -11q0 -9 23 -18v12q0 8 -17 17zM211 1071v-12h11v12h-11zM257 1071q-6 -12 -6 -18q0 -9 24 -23q10 6 23 6v23zM397 1065v-18l11 6l12 -6l6 12q-20 0 -29 6zM251 972v-6q41 -4 41 -18q9 6 35 6v12 l-6 29q8 0 18 17v12q-7 0 -18 6q-25 0 -64 -58h-6zM373 1018v-6h12v6h-12zM600 1012q0 -17 -29 -17v-6h35q12 0 12 12q0 11 -12 11h-6zM507 977v-11h6v11h-6zM356 948v-5h12q12 2 23 29h-6q-29 -16 -29 -24zM432 972v-12h5v12h-5zM629 972v-12q12 0 12 12h-12zM234 960 l-6 -12q2 -11 12 -11q11 0 11 11zM507 960v-6h12v6h-12zM298 937v-18q0 -8 17 -17h6q0 17 12 17l-6 12l6 12h-6zM228 908v-6h12v6h-12zM251 908v-6h12v6h-12zM618 896v-12q2 -11 11 -11h6v11q0 12 -11 12h-6zM240 890v-6h17v6h-17zM647 809v-6h23v6q0 11 -11 11 q-12 -1 -12 -11zM699 803v-6q12 0 12 12v6q-12 -2 -12 -12zM699 768v-17h6q8 0 18 17h-24zM653 687v-6h11v6h-11zM682 669v-12h6v12h-6zM711 465v-5q2 -12 12 -12v29q-12 -2 -12 -12zM641 448l12 -6h11v18h-11q-12 -2 -12 -12zM222 407v-11h6v11h-6zM298 343v-11h6v11h-6z M216 303v-6h29v6h-29zM280 291v-12h6v12h-6zM251 268v-24h6v24h-6zM309 268v-18q12 0 12 12v6h-12zM641 262q12 -14 12 -23h6v17l-12 6h-6zM577 227q0 -8 18 -18h5v24q-10 -6 -23 -6zM472 192v-17h6v17h-6zM484 175v-12h6v12h-6zM589 175v-12q11 0 11 12h-11zM531 169 l-6 -29q19 17 35 17v12h-29zM356 128l12 -6l5 12v6h-5q-12 -2 -12 -12z" />
<glyph unicode="6" horiz-adv-x="900" d="M414 1588h70q180 0 297 -203q23 -72 23 -122v-24q0 -51 -76 -58h-122q-53 0 -64 87q-46 64 -99 64q-68 0 -81 -87v-169q347 0 419 -221q23 -40 23 -110v-402q0 -229 -268 -331q-66 -12 -93 -12q-185 0 -291 175q-52 90 -52 168l6 82q-6 30 -6 35l6 69q0 35 -6 105 q6 70 6 105q0 24 -6 64q6 42 6 110q0 38 -6 59q6 50 6 87v192l-6 35q48 175 163 250q103 52 151 52zM478 1507v-12h6v12h-6zM519 1472v-6h12v6h-12zM478 1466v-11q0 -9 18 -18q11 0 11 12q0 8 -17 17h-12zM344 1443v-6q2 -12 12 -12v18h-12zM414 1414v-12h12q8 0 17 18v5h-6 q-14 -11 -23 -11zM496 1425v-11h11v11h-11zM536 1408v-12h18v12h-18zM257 1350q2 -12 12 -12q0 12 23 12v17q-35 -3 -35 -17zM600 1361v-11h6v11h-6zM624 1350v-18q1 -11 11 -11l6 23l-12 6h-5zM606 1315v-6h12v6h-12zM263 1309v-12h23q0 12 -11 12h-12zM315 1309v-6h12v6 h-12zM286 1292v-6h23v6h-23zM205 1286v-12l35 -6v6q0 12 -12 12h-23zM205 1233h23v12h-12q-11 -2 -11 -12zM234 1152l-12 6h-6v-18l29 6v18q-11 -2 -11 -12zM263 1146v-11h6v11h-6zM251 1076v-5h18v5h-18zM275 1065q0 -9 23 -24h11v12q0 12 -11 12h-23zM199 1024v-12h12v12 h-12zM309 1018l-5 -11q1 -12 11 -12l6 12q0 11 -12 11zM234 983h17q14 12 24 12v17h-6q-35 0 -35 -29zM327 989v-17h23v11zM275 966v-18q0 -8 23 -17l6 12v17q0 12 -12 12q-11 -6 -17 -6zM565 954v-11h6v11h-6zM490 943v-12h11v12h-11zM251 925h12v12q-12 -2 -12 -12z M339 919v-23h29q0 17 5 17q-5 11 -5 24h-12q-8 0 -17 -18zM269 931v-6h11v6h-11zM391 931v-6h12v6h-12zM531 919v-6q8 0 17 18h-6q-11 -2 -11 -12zM234 913v-5h11v5h-11zM443 896v-6q6 0 18 -6v24h-6q-12 -2 -12 -12zM554 908q0 -12 -23 -29v-6q0 -9 17 -18h6q11 0 11 12v41 h-11zM414 890v-11h6v11h-6zM478 884v-17h6v17h-6zM618 867v-18h11q0 12 30 30v5h-6q-35 -3 -35 -17zM240 861l23 -29q46 26 46 35q-34 0 -34 12q-35 -8 -35 -18zM228 873v-12h6v12h-6zM362 727v-372q13 -93 93 -93h6q81 21 81 93q6 39 6 122q0 74 -6 169q6 28 6 75 q0 78 -111 94q-60 0 -75 -88zM624 815v-6h11v6h-11zM251 791v-11q10 5 24 5l-6 12q-12 -6 -18 -6zM624 704v-12h11v12h-11zM211 687v-12h17v12h-17zM635 687v-12h6v12h-6zM234 669v-6q2 -11 11 -11h12l-6 29h-6q-11 -2 -11 -12zM705 663q2 -11 12 -11h6v11h-18zM670 588 q0 -7 -6 -18h18q11 0 11 12v6h-23zM199 582v-12h6v12h-6zM723 559v-24h5l6 24h-11zM693 489v-18q12 0 12 12v6h-12zM251 465v-11h6v11h-6zM635 448q2 -12 12 -12h12q0 12 -12 12h-12zM717 448v-6h11v6h-11zM664 431v-12h18q0 12 -12 12h-6zM676 367v-6q2 -12 12 -12h11v18 h-23zM676 303v-12h6v12h-6zM659 273v-5h11q12 0 12 11l-12 6q-11 -2 -11 -12zM595 262l17 -12q12 0 12 12q0 11 -12 11h-6q-11 -1 -11 -11zM298 233v-18h6q11 0 11 12l-11 6h-6zM321 215v-11h29v5zM536 209v-23q29 8 29 18v5h-29zM275 192v-12h11q0 12 -11 12zM571 180v-11 h6v11h-6zM275 169v-6h11v6h-11zM437 157v-12h6q12 0 12 12h-18zM379 151v-6h12v6h-12zM484 145v-11h6v11h-6zM373 128v-6h12v6h-12z" />
<glyph unicode="7" horiz-adv-x="778" d="M149 1594h41q21 0 52 -6q10 6 23 6l24 -6q6 0 17 6q50 -6 76 -6q37 0 75 6q33 -6 93 -6h6q13 0 23 6q11 -6 24 -6h6q13 0 23 6l11 -6q7 0 18 6q93 0 105 -64v-128q0 -44 -187 -314q-180 -259 -180 -797q-6 0 -6 -239q0 -39 -58 -52h-151q-39 0 -58 76l11 81l-6 52 q18 430 64 646q18 21 94 204l133 209q0 22 12 59h-320q-51 0 -58 75v64q0 13 -6 23q13 105 99 105zM341 1489v-11h6v11h-6zM393 1489v-11h12q0 11 -12 11zM195 1460q2 -11 12 -11q12 0 12 11h-24zM318 1449v-6h17v6h-17zM591 1437v-12h6q11 6 17 6v6q0 12 -11 12 q-12 -2 -12 -12zM475 1443v-18h6v18h-6zM399 1437v-12h12q0 12 -12 12zM545 1437v-35q29 8 29 18q0 8 -18 17h-11zM265 1431v-11h6v11h-6zM422 1414v-18h12l41 -5v5q0 12 -53 18zM585 1391q0 -24 -11 -24h-24q0 18 -11 18q-12 -2 -12 -12l35 -23h35q12 0 12 11q-12 0 -12 12 q6 0 6 6zM504 1367v-17q2 -12 11 -12q0 20 6 29h-17zM527 1332l-6 -11v-6h12v-6l-6 -12q12 0 12 -23h6q0 15 11 29q0 6 -29 29zM510 1286v-6h11v6h-11zM562 1280v-23h12v11q0 12 -12 12zM492 1257v-18h6v18h-6zM481 1210q1 -11 11 -11h12v11h-23zM411 1053q0 -8 17 -17v17 h-17zM417 972v-6h17v6h-17zM300 774v-12q12 0 12 12h-12zM323 751v-24q3 0 24 -6l6 12v6q0 12 -12 12h-18zM283 698v-6h11v6h-11zM318 675v-6h11v6h-11zM259 640v-6h12v6h-12zM230 582v-12h6v12h-6zM259 564l18 -11q12 0 12 11q0 12 -12 12h-6q-12 -2 -12 -12zM230 524v-12 h12v12h-12zM259 500v-17h12v6q0 11 -12 11zM289 483v-6h11v6h-11zM271 320v-6h12v6h-12zM318 273v-11h11q0 11 -11 11zM236 250v-6h12v6h-12zM289 227v-6h11v6h-11zM213 192v-6h17v6h-17zM265 192v-6q6 -11 6 -17h6v23h-12z" />
<glyph unicode="8" horiz-adv-x="900" d="M414 1594q190 -15 204 -46q55 0 151 -140q25 -48 41 -157l-6 -29v-99q0 -13 6 -23q0 -106 -82 -227q82 -111 82 -216l-6 -29v-244q0 -13 6 -23q0 -231 -250 -344q-80 -17 -111 -17q-228 0 -320 227q-29 68 -29 221l6 81q0 8 -6 59q21 232 52 232q12 38 12 53 q-64 145 -64 215q0 79 12 128q0 6 -6 17q0 241 227 338q21 12 81 23zM385 1478v-6q6 -11 6 -17h6v23h-12zM490 1472v-6q0 -11 17 -11q12 5 18 5v12h-35zM461 1449v-6q2 -12 11 -12t18 18h-29zM362 1431v-6h17v6h-17zM519 1408q9 -23 17 -23q0 11 18 11v24h-6q-29 -2 -29 -12 zM420 1414v-18h17q0 9 -17 18zM565 1414v-12h6v12h-6zM589 1391v-12h17v12h-17zM269 1367h11v12q-11 -2 -11 -12zM519 1373v-12h6v12h-6zM571 1356v-6h12v6h-12zM589 1338q2 -11 11 -11v11h-11zM362 1239v-134q12 -98 99 -98t87 139l-6 29q6 41 6 70q-30 87 -105 87 q-69 0 -81 -93zM635 1327q2 -12 12 -12v12h-12zM606 1292h12v11q-12 -2 -12 -11zM251 1286v-12h12v12h-12zM647 1286v-18q12 0 12 12v6h-12zM647 1239v-17h29v6q0 11 -12 11h-17zM629 1193v-6h12v6h-12zM688 1123v-12h5v12h-5zM612 1094v-6h12v6h-12zM659 1071v-6h11v6h-11z M286 1030v-23h6v23h-6zM600 1007v-6l35 -6l6 12v11q-29 -11 -41 -11zM647 1018v-6h12v6h-12zM688 983v-17h5v17h-5zM600 943l6 -12q-10 -64 -46 -64v-12q17 -6 35 -6q0 28 34 47q0 41 12 52v6q-17 0 -17 18q-8 -1 -24 -29zM263 960v-6h17v6h-17zM315 948v-11q12 0 12 11h-12 zM653 948q2 -11 11 -11v11h-11zM467 943v-24q8 0 17 18v6h-17zM408 925q2 -12 12 -12v12h-12zM234 919v-6q6 -11 6 -17h5l6 23h-17zM292 919v-11h6v11h-6zM373 919v-11q2 -12 12 -12q0 9 12 23h-24zM292 884l17 -11v23h-5q-12 -2 -12 -12zM339 879v-12q9 0 23 -12h17v6 q0 12 -40 18zM403 867l17 -12h6v12q0 12 -12 12q-11 -2 -11 -12zM507 879v-6h12v6h-12zM275 832v-6q1 -11 11 -11l6 11v18h-6q-11 -2 -11 -12zM629 844v-18q12 0 12 12v6h-12zM228 832v-17q12 0 12 11v6h-12zM589 832v-12h11q0 12 -11 12zM490 826v-17q2 -12 11 -12v18 q0 11 -11 11zM606 826v-17q2 -12 12 -12v29h-12zM333 820v-5h17v5h-17zM356 820v-11h6v11h-6zM542 809v-24h12q11 0 11 12t-11 12h-12zM629 797q0 -13 -5 -23l11 -6h24q8 0 17 17q-19 12 -35 12h-12zM618 768v-12h6v12h-6zM670 745v-12h6v12h-6zM362 652v-285q0 -65 64 -99 h52q70 0 70 180q0 268 -35 268q-35 23 -64 23h-12q-64 0 -75 -87zM257 733v-12h6v12h-6zM280 727v-11q2 -12 12 -12h6v12q0 11 -12 11h-6zM647 716v-12h12v12h-12zM222 576v-6h12v18q-12 -2 -12 -12zM286 588v-12h6v12h-6zM693 535q2 -11 12 -11v23q-12 -2 -12 -12zM205 483 q2 -12 11 -12h6v12h-17zM234 367v-12h6v12h-6zM245 355v-29h6v29h-6zM659 343l-6 -11v-18q10 6 23 6v17q-6 0 -17 6zM723 326v-12h5v12h-5zM292 273v-5q9 0 23 -12h6v17h-29zM321 250v-23h6v23h-6zM600 250l-5 -29q8 0 17 18v11h-12zM664 250v-11h18v11h-18zM641 239v-12h6 v12h-6zM321 209q-6 -11 -6 -17q19 -12 35 -12h12q0 18 11 18v6h-11q0 -6 -6 -6q0 11 -35 11zM426 157q2 -12 11 -12v24q-11 -2 -11 -12zM542 169v-24h18v6q-6 12 -6 18h-12zM391 145v-5h12v5h-12z" />
<glyph unicode="9" horiz-adv-x="900" d="M490 1594q320 -64 320 -372v-838q0 -299 -297 -378l-70 -6q-233 0 -331 268l-12 75q18 64 70 64q24 0 46 6q31 -6 59 -6h34q57 0 70 -99q40 -40 64 -40h58q53 23 53 99q-6 106 -18 162q-48 -11 -93 -11q-203 0 -308 209q-29 74 -29 99v221q0 45 -6 82q0 259 105 355 q111 104 256 104q0 6 29 6zM496 1484v-6h17v6h-17zM525 1443h11v12q-11 -2 -11 -12zM403 1420l11 -6q12 0 12 11v6h-12q-11 -2 -11 -11zM629 1414l-5 -29h11q12 0 12 11v18h-18zM362 1408l6 -12l-6 -11q6 -12 6 -18q19 12 29 12v17q0 12 -12 12h-23zM560 1402v-6h17v6h-17z M531 1385v-18h5v18h-5zM583 1367v-11h6q9 0 23 23l-12 6q-8 0 -17 -18zM327 1379v-12h6v12h-6zM577 1350v-18h6v18h-6zM368 1257v-384q0 -52 64 -93h23q71 0 93 93q6 276 6 320l6 23q-25 116 -117 116q-75 -19 -75 -75zM309 1327v-12h6v12h-6zM251 1204q2 -11 12 -11 q8 0 17 17l-11 6h-6q-12 -2 -12 -12zM699 1164v-6h12v6h-12zM257 1158v-6h12v6h-12zM257 1123l-6 -12l12 -6l6 12zM705 1076v-11h6v11h-6zM240 1071v-12h5v12h-5zM216 1018v-6h12v6h-12zM269 989v-17q2 -12 11 -12l6 12v17h-17zM705 948v-5h12v5h-12zM717 884v-17h6v17h-6z M624 832v-6h17v6h-17zM653 820v-17l11 6h6v-29q2 -12 12 -12q0 35 11 47l-11 5h-12l-11 -5q0 5 -6 5zM292 809v-24h6l6 24h-12zM228 791v-11h6v11h-6zM304 745v-12h5q27 11 30 23v12h-6q-18 -23 -29 -23zM589 751q2 -12 11 -12h29q0 14 12 29h-12q-21 -17 -40 -17zM554 756 v-11h6v11h-6zM263 733v-17h6v17h-6zM699 727q0 -9 -11 -23l11 -6h12v18q0 11 -12 11zM327 704v-6q2 -11 12 -11v29q-12 -2 -12 -12zM519 710v-23q12 0 12 11q0 12 -12 12zM571 681l-29 6h-11v-24l34 -6h12q0 23 35 41v6h-23q-9 0 -18 -23zM653 698v-17q11 -14 11 -24 q24 9 24 18q-9 23 -18 23h-17zM379 692v-5h24v5h-24zM478 692v-29h6l6 29h-12zM589 634v-17q0 -9 17 -18h6q12 0 12 12v46h-12q-9 0 -23 -23zM531 605l11 -6q12 0 12 12l-12 6q-11 -2 -11 -12zM734 617v-6h12v6h-12zM635 576v-6l24 6l11 -6q11 6 18 6v23h-12 q-41 -16 -41 -23zM600 593v-11h6v11h-6zM618 576v-17h11v5q0 12 -11 12zM653 553q0 -3 -6 -24l12 -5l5 11v18h-11zM624 500v-5h11v5h-11zM659 407q1 -11 11 -11l23 40q-5 12 -5 18zM688 320l-12 -17l12 -6q11 0 11 11q0 12 -11 12zM600 244h24q11 0 11 12l-6 29 q-9 0 -29 -41zM257 268v-6l6 -29h6q0 21 11 35h-23zM286 221v-6l6 -29h6q0 18 17 18q0 10 -29 17zM327 192v-12h6v12h-6zM397 180h11v12q-11 -2 -11 -12zM595 192v-12h5q12 0 12 12h-17zM321 175v-12q12 0 12 12h-12zM368 169v-18q3 0 23 -6v12q0 12 -12 12h-11zM426 145 q2 -11 11 -11h6v11h-17zM472 111h35l12 -6v11q-11 27 -23 29h-6q-18 -5 -18 -34z" />
<glyph unicode=":" horiz-adv-x="460" d="M162 1113q88 -3 146 -3q56 0 64 -52v-134q-6 -70 -58 -70h-163q-51 6 -36 119v69q-5 49 47 71zM162 259q88 -3 146 -3q56 0 64 -52v-134q-6 -70 -58 -70h-163q-51 6 -36 119v69q-5 49 47 71z" />
<glyph unicode=";" horiz-adv-x="500" d="M181 1113q88 -3 146 -3q56 0 64 -52v-134q-6 -70 -58 -70h-163q-51 6 -36 119v69q-5 49 47 71zM207 198h23q19 0 29 -6l35 6h41q64 -18 64 -35v-17q0 -30 -157 -408q-25 -23 -47 -23h-76q-52 8 -52 52q52 242 76 390q30 41 64 41zM249 135v-14h14v14h-14zM162 85v-29h22 v7q-7 14 -7 22h-15zM234 63v-14h7v14h-7zM213 56v-7h14v7h-14zM234 42v-7q7 -14 7 -22h36v7q-19 0 -43 22zM198 -16v-14h22v14h-22zM155 -30v-15h7v15h-7zM205 -80q8 -14 8 -22h7v36q-15 -2 -15 -14zM213 -181v-29q14 0 14 14q0 15 -14 15z" />
<glyph unicode="&#x3c;" horiz-adv-x="780" d="M536 1263q50 0 157 -145v-11q0 -33 -215 -233l-70 -75v-6q0 -14 204 -203q81 -78 81 -111q0 -39 -151 -162h-12q-43 0 -290 261q-180 164 -180 221q0 26 226 244q11 0 180 186q30 26 70 34zM443 1072v-6h12v6h-12zM496 1054v-5q1 -12 11 -12v17h-11zM455 996l-6 -11h17 q0 11 -11 11zM281 886h11q9 0 18 17h-12q-8 0 -17 -17zM391 903q0 -3 -6 -23h23v6q0 8 -17 17zM345 898v-12h5v12h-5zM269 805q19 -15 29 -47q-11 -6 -17 -6l-24 12l-5 -12v-5q1 -12 11 -12l35 6q6 -10 6 -23h6q0 23 5 23l-5 11v18l11 17v12l-11 -6q-24 12 -24 29 q-8 0 -17 -17zM257 810v-11h6v11h-6zM281 706v-12h5v12h-5zM228 700q2 -12 12 -12h6v12h-18zM281 688v-17q1 -12 11 -12q0 12 23 12v6q0 11 -11 11h-23zM356 671v-12h12q0 12 -12 12zM339 654v-6h11v6h-11zM408 596v-12q0 -8 18 -17q0 33 46 40v6h-29q-35 -4 -35 -17z M478 590v-6h12v6h-12z" />
<glyph unicode="=" horiz-adv-x="1059" d="M164 1152q6 0 180 -17q22 11 47 11q6 0 17 -6q12 0 12 6q14 0 87 -6q245 6 280 6q51 -6 64 -6q29 12 40 12q54 -23 64 -47v-157q-9 -64 -64 -64h-750q-41 26 -41 76v6q0 21 6 52l-6 12q6 23 6 41l-6 23q37 58 64 58zM699 1036v-6q0 -9 24 -23h5v5q0 9 -23 24h-6zM315 995 v-12h6v12h-6zM513 977v-5h12v5h-12zM868 710q87 -17 87 -64v-134q-6 -70 -58 -70h-739q-58 12 -58 58v140q0 35 64 64l29 -6q60 6 93 6q13 0 23 -6q3 0 24 6q27 0 134 -12l93 12q120 -8 128 -12q88 6 180 18zM740 599h12v12q-12 -2 -12 -12zM781 599v-11h6v11h-6zM723 576 v-17h11v17h-11zM432 570v-6h11v6h-11zM536 570v-11h18q0 11 -12 11h-6z" />
<glyph unicode="&#x3e;" horiz-adv-x="780" d="M286 1229q170 -186 180 -186q227 -218 227 -244q0 -57 -180 -221q-247 -261 -290 -261h-12q-151 123 -151 162q0 33 81 111q204 189 204 203v6l-70 75q-215 200 -215 233v11q107 145 157 145q40 -8 69 -34zM298 1072v-6h12v6h-12zM246 1054v-17q10 0 11 12v5h-11z M286 985h18l-6 11q-12 0 -12 -11zM455 903h-12q9 -17 18 -17h11q-9 17 -17 17zM345 886v-6h23q-6 20 -6 23q-17 -9 -17 -17zM403 898v-12h5v12h-5zM466 822q0 -17 -23 -29l-11 6v-12l11 -17v-18l-6 -11q6 0 6 -23h6q0 13 6 23l35 -6q9 0 11 12v5l-5 12l-24 -12q-6 0 -17 6 q9 32 29 47q-9 17 -18 17zM490 810v-11h6v11h-6zM466 706v-12h6v12h-6zM507 700v-12h6q10 0 12 12h-18zM449 688q-12 0 -12 -11v-6q24 0 24 -12q9 0 11 12v17h-23zM385 659h12v12q-12 0 -12 -12zM403 654v-6h11v6h-11zM310 613h-29v-6q46 -7 46 -40q18 9 18 17v12 q0 13 -35 17zM263 590v-6h12v6h-12z" />
<glyph unicode="?" horiz-adv-x="874" d="M450 1588q71 0 221 -104q93 -113 93 -233v-151q0 -166 -180 -379q-41 -75 -41 -145v-145q-10 -64 -64 -64h-134q-64 11 -64 58v104q0 14 -6 24q12 156 128 314q87 107 99 198v180q-31 82 -87 82h-12q-81 -10 -81 -82v-140q0 -75 -93 -75h-88q-75 0 -75 52q0 6 -6 6l6 41 v40q0 32 -6 82q6 10 6 29q-6 11 -6 17q52 169 151 227q97 59 163 59q50 5 76 5zM479 1478v-12h6v12h-6zM328 1460v-5q1 -12 11 -12v17h-11zM502 1425v-5h12v5h-12zM520 1425v-5h11v5h-11zM240 1391v-30h6q0 14 23 30q0 11 -11 11h-6q-12 -2 -12 -11zM258 1338h17v12h-6 q-11 -2 -11 -12zM589 1332v-46h6q0 11 12 41l-12 5h-6zM194 1239v-6l11 -17q20 5 35 35q0 12 -17 12q-27 -12 -29 -24zM589 1257v-6h12v6h-12zM642 1047v-11q0 -9 17 -18h6q0 6 6 18q-9 0 -23 11h-6zM619 983l11 -6v18q-11 -2 -11 -12zM613 966v-6h11v6h-11zM624 948v-5h12 v5h-12zM549 902l17 -12v23h-6q-11 -1 -11 -11zM502 838v-6h18v6h-18zM549 838v-18h6v18h-6zM450 716l-6 -12l12 -6h5v6q0 12 -11 12zM374 564h29q12 0 12 12v6h-23q-9 0 -18 -18zM409 529v-17h12v6q0 11 -12 11zM461 262q82 -11 82 -58v-146q-12 -58 -58 -58h-163 q-35 19 -35 58q0 34 -6 140q0 58 134 58q24 0 46 6z" />
<glyph unicode="@" horiz-adv-x="1369" d="M622 1595h100q190 0 386 -181q152 -168 152 -428v-924q-12 -64 -58 -64h-158q-31 0 -36 17q-68 -17 -117 -17q-173 0 -286 163q-59 94 -59 264l6 29q0 7 -6 58l6 53q0 15 -6 47q0 231 82 333q99 135 351 135v35q0 78 -164 187q-70 30 -128 30h-24q-220 0 -292 -258 q-6 -36 -6 -82v-760q0 -261 257 -346q55 0 100 -6q18 0 41 6q88 -6 164 -6h81q56 0 135 6q117 0 117 -58v-135q-6 -70 -58 -70h-492q-325 0 -497 240q-62 56 -105 281q0 32 -6 64q0 11 6 105q0 47 -6 123q6 96 6 170q0 58 -12 100q12 143 12 292q0 13 -6 65l41 157l52 100 q50 119 270 240q145 35 157 35zM693 1490v-12h5v12h-5zM693 1472v-6h11v6h-11zM494 1466v-6h23v6h-23zM523 1449v-12h6v12h-6zM581 1443v-6h12v6h-12zM535 1414q6 0 6 -6q35 17 40 17l-5 12q-41 -10 -41 -23zM704 1425v-11h6v11h-6zM821 1414v-24q12 0 12 12t-12 12z M465 1384q11 0 11 -17h6l6 23l-12 6q-11 -2 -11 -12zM880 1390v-6h11v6h-11zM365 1367v-6h23v6q0 11 -11 11q-12 -1 -12 -11zM909 1367v-12h6v12h-6zM388 1355v-12h6v12h-6zM400 1355v-6h12v6h-12zM465 1338h11v11q-11 -2 -11 -11zM909 1343q2 -11 12 -11v11h-12zM1014 1343 v-11h12v11h-12zM1008 1302v-5h12v5h-12zM353 1279v-6h6q12 0 12 12v6h-6q-12 -2 -12 -12zM289 1232v-6h12v6h-12zM1014 1209l12 -6v17q-12 -1 -12 -11zM266 1191v-17h11v17h-11zM1055 1127q-11 -42 -11 -47l11 -6l18 29q-12 0 -12 24h-6zM997 1045l29 -18l6 12v6 q-9 0 -24 12q-11 -2 -11 -12zM1166 1051v-12q12 0 12 12h-12zM1038 1022v-6q4 0 35 -6l6 12v11zM1120 1010q0 -16 -18 -35l12 -18v-12l-6 -29q23 9 23 18q0 6 -6 6q4 39 24 52q-6 12 -6 18h-23zM277 1004q2 -12 12 -12v12h-12zM932 998v-6h18v6h-18zM1026 981v-6h18v6h-18z M1079 975l-6 -12q2 -12 12 -12q11 0 11 12zM991 934v-6q19 0 29 -6l-6 -12v-5q2 -12 12 -12h6v41q-9 0 -24 11h-5q-12 -1 -12 -11zM1044 945v-11h5v11h-5zM1055 945v-5h12v5h-12zM1061 934v-12h6v12h-6zM1090 922q0 -17 -11 -17q-12 5 -18 5v-5q12 -37 12 -47l41 23 q-12 14 -12 41h-12zM815 905v-6h12v6h-12zM260 899q2 -12 11 -12q12 0 12 12h-23zM839 881h23v18q-23 -9 -23 -18zM956 875v-6h12v6h-12zM745 852v-6h12v6h-12zM810 852v-6h11v6h-11zM734 840v-23h17v6q0 8 -17 17zM1120 823v-12h11q29 15 30 23v6h-6q-35 -4 -35 -17z M1067 834v-17l12 -18h-18v-6q18 0 41 -6l12 18q0 7 -47 29zM815 735v-386q20 -76 71 -76h52q70 0 70 146q-5 41 -11 41l6 58v82l5 35q-13 158 -52 158q0 19 -65 24q-62 0 -76 -82zM271 805v-12h6v12h-6zM669 793v-11q0 -10 35 -24q0 18 24 18v17h-30l-17 12q-12 -2 -12 -12z M1044 799v-17h11v17h-11zM277 741h18v11h-6q-12 -1 -12 -11zM1102 752v-11h6v11h-6zM1161 741v-12h5v12h-5zM242 729v-18l12 6l12 -6l5 12q-5 0 -5 6l-12 -6zM698 694h12q12 2 24 29l-12 6h-6q-12 0 -18 -35zM1108 706v-6q6 -12 6 -18h6l5 24h-17zM1155 676v-11h6v11h-6z M658 635v-11h5v11h-5zM675 635q2 -11 12 -11q11 0 11 11h-23zM669 577v-12h6v12h-6zM716 577v-18h6q12 0 12 12l-12 6h-6zM213 559v-11h6v11h-6zM231 542v-6h17v6h-17zM225 471h23q0 12 -12 12q-11 -2 -11 -12zM663 454v-12h6v12h-6zM716 436v-11h6v11h-6zM254 425v-18 q12 0 12 12zM277 401v-11h6v11h-6zM1085 378v-6h29v23h-6q-23 -8 -23 -17zM1149 390q2 -12 12 -12h5v12h-17zM716 384v-12h6v12h-6zM663 360v-17h12v6q0 11 -12 11zM669 308l12 -6h17v6q0 11 -11 11h-6q-12 -1 -12 -11zM1125 302v-18q12 0 12 12v6h-12zM1067 284v-17h18v6 q0 11 -12 11h-6zM1102 237q2 -11 12 -11h17v29h-11q-9 0 -18 -18zM722 249v-17q2 -12 12 -12h5l6 29h-23zM792 243v-6q6 -11 6 -17h12v6q-6 11 -6 17h-12zM213 237v-11q2 -12 12 -12v23h-12zM1049 226v-12h6v12h-6zM973 202h12v12q-12 -2 -12 -12zM1090 214v-18h6v18h-6z M1003 173v-12q7 6 35 6v-6h6q0 35 11 47h-17q-8 0 -35 -35zM248 202v-11h6v11h-6zM833 202q2 -11 12 -11h6v11h-18zM728 191v-6q2 -12 11 -12h24v6l-12 17q-10 -5 -23 -5zM266 191v-12q1 -12 11 -12h6v12q0 12 -12 12h-5zM856 179v-12h18v6q-6 11 -6 18q-12 -2 -12 -12z M1067 191q0 -10 -12 -24v-29q24 23 35 23l-5 12v6l5 12h-23zM921 185l-6 -24h6q14 12 23 12v6q-13 0 -23 6zM1102 167v-6q2 -11 12 -11l23 23h-6zM810 155q5 -11 5 -17h18q0 8 -18 17h-5zM874 155l-6 -23l12 -6h17q12 0 12 12q0 8 -18 17h-17zM968 155v-11h5v11h-5z M1008 144v-12h6v12h-6zM1143 138v-6h12v6h-12zM1055 132v-17q2 -12 12 -12v29h-12zM973 103v-6h12v6h-12zM903 91v-6h12v6h-12zM236 38h12v12q-12 -2 -12 -12zM342 -2v-12q11 0 11 12h-11zM324 -14v-12h6v12h-6zM324 -43v-6h12v6h-12zM377 -90v-24q11 0 11 12t-11 12z M459 -131v-12h6v12h-6zM400 -184q2 -12 12 -12l12 18l-12 6q-12 -2 -12 -12zM517 -184q2 -12 12 -12l12 18l-12 6q-12 -2 -12 -12zM459 -201v-6q1 -12 11 -12h12v18h-23zM1003 -213v-12h17q0 12 -12 12h-5zM1114 -231v-11h11q0 11 -11 11zM617 -248v-6h29q0 12 -12 12 q-11 -6 -17 -6zM991 -254v-6h12v18q-12 -2 -12 -12zM745 -248v-6q2 -12 12 -12h12v6q0 12 -12 12h-12zM687 -283v-6h11v17q-11 -1 -11 -11z" />
<glyph unicode="A" horiz-adv-x="960" d="M499 1600q128 0 128 -122q303 -1378 303 -1420q0 -52 -70 -58h-140q-54 0 -69 116q-18 6 -18 35h-314q-20 -151 -82 -151h-151q-34 0 -58 52l76 320q0 34 69 332q0 44 30 151l145 664q22 69 70 69q0 6 81 12zM482 1414v-23q8 0 17 17l-11 6h-6zM424 1396v-11q11 0 11 11 h-11zM412 1332q11 -5 18 -5l23 11l35 -6h11q12 0 12 12v6q0 11 -12 11h-35q0 -17 -11 -17l-6 12q6 0 6 5q-41 0 -41 -29zM470 1292v-29q0 -18 -23 -18v-6q0 -6 6 -6q-12 -23 -12 -34h12q0 29 11 29q6 0 35 52q-19 12 -29 12zM435 1280l6 -29h12v29h-18zM424 1228v-18h6v18 h-6zM488 1216q0 -15 -47 -47v-17q17 0 35 -47q18 0 18 -11v-18q-15 0 -30 -11h-17v11l17 24v11h-23q-8 0 -17 -17v-12l6 -11q-12 -6 -18 -6l12 -18q0 -6 -6 -6q0 -5 6 -5l-6 -29v-12q2 -12 12 -12q0 6 5 6l12 -17q10 5 29 5v12q-29 0 -29 35q0 9 52 29q28 0 47 -46h6v11h11 l-5 -11h29v5l-12 18l6 41l-12 5l-23 -23q-12 0 -12 12v11l12 18v6q-47 0 -47 58l-11 -6h-6q-12 0 -12 12q29 23 47 23l-6 12h12q8 0 17 -18v-12h-12v-23q16 -41 53 -41v24q-29 6 -29 23q0 7 6 58h-12q-33 6 -58 6zM371 1140q2 -11 12 -11h12q0 11 5 11q-5 12 -5 18 q-24 -9 -24 -18zM424 1146v-17h6v17h-6zM389 1100v-12h6v12h-6zM587 1053v-29h5q0 12 24 29h-29zM476 1001q10 0 18 -29q-18 -29 -18 -41q6 0 6 -6l23 6l29 -6q16 0 53 18q10 -6 23 -6v17h-41q-11 0 -11 12l5 29h-17v-6q6 -11 6 -17l-12 -6q0 6 -6 6q0 -6 -6 -6 q-13 25 -29 29l6 12v29h-11q-18 -6 -18 -35zM627 1001v-24h6v24h-6zM400 989v-17q12 0 12 11zM627 972v-12h6v12h-6zM354 966v-6h11v6h-11zM424 948h35q0 12 -12 12h-12q-11 -2 -11 -12zM365 954v-11l18 -24v-6q0 -5 -6 -5l6 -12q-6 -25 -6 -41q19 12 35 12v52 q-22 35 -29 35h-18zM464 919v-11h6v11h-6zM488 919v-17h6v17h-6zM546 884l6 -11v-6q0 -18 -24 -18v-11l12 6l12 -6q2 11 11 11l18 -11h17q9 0 24 23v6h-6q-19 -12 -29 -12q0 8 -29 29h-12zM470 873l-93 -454h6l52 -12h6q35 0 134 12v58q-58 306 -81 349q-6 47 -18 47h-6z M528 832v-6h18v6h-18zM371 820v-11h24q0 11 -12 11h-12zM325 785v-5q11 0 11 11v6q-11 -2 -11 -12zM383 797v-6h12v6h-12zM342 751h12v11q-12 -2 -12 -11zM668 745v-29h6q0 9 12 23l-12 6h-6zM348 681v-6h12v6h-12zM709 681v-12h6v12h-6zM307 599v-11h6v11h-6zM709 588v-12 h6v12h-6zM220 512v-6q2 -11 12 -11h5v17h-17zM674 500v-17q2 -12 12 -12v18q0 11 -12 11zM232 460v-12h17v12h-17zM307 436v-11h6v11h-6zM633 425v-18l23 -6v24h-23zM307 413v-6h12v6h-12zM691 413v-6h12v6h-12zM726 396v-12h6v12h-6zM249 390v-23q0 -9 18 -18h5v29 q-9 0 -23 12zM290 367l35 -24v-11q13 0 17 40l-11 6q-14 -11 -41 -11zM680 349q8 -53 35 -81v-18q0 -11 -18 -11v-6l29 -53h6q12 0 12 12q0 15 -18 41q0 35 24 35v52q0 12 -12 12v-35h-18q-6 0 -23 46h-6l6 12v6h-6q-11 -2 -11 -12zM185 349v-12h6v12h-6zM272 343 q2 -11 12 -11q12 0 12 11h-24zM488 332v-24h11v24h-11zM558 314q0 -14 -12 -29h12q8 0 17 23l-12 6h-5zM243 291q2 -12 12 -12h12v29q-24 -8 -24 -17zM342 297h18v11h-6q-12 -1 -12 -11zM610 279v-11q0 -9 17 -18q0 15 12 29l-6 29q-8 0 -23 -29zM296 303l5 -30h6 q12 0 12 12v6q0 12 -12 12h-11zM173 291v-12q12 0 12 12h-12zM377 291v-29h18v6q-9 23 -18 23zM645 291q0 -8 17 -18v18h-17zM243 268v-12q9 0 24 -17l-6 -12v-6h17v6q-6 11 -6 17h6q-6 10 -6 29zM412 268v-12h18v12h-18zM191 262v-6h12v6h-12zM208 244q12 -37 12 -46h17v6 l-5 40h-24zM668 239v-12q2 -12 12 -12l6 12q0 12 -12 12h-6zM808 221v-12q11 0 11 12h-11zM232 192v-12h5v12h-5zM162 175v-30h11l-5 30h-6zM732 175v-6h12v6h-12z" />
<glyph unicode="B" horiz-adv-x="900" d="M202 1594q97 -6 151 -6q34 0 122 6q139 -19 216 -81q122 -113 122 -297v-163q0 -148 -76 -250q76 -116 76 -250v-163q0 -278 -250 -373q-61 -17 -123 -17h-296q-19 6 -41 58q6 87 6 117q0 7 -6 58q0 6 6 6q-6 32 -6 46q0 103 6 215q-6 72 -6 140l6 29q-9 133 -12 146 q6 31 6 52v110q0 50 11 76l-11 308q6 29 6 76q0 14 -6 87q0 58 99 70zM382 1478v-23h6v23h-6zM248 1466v-6q0 -9 24 -23v6q-9 23 -18 23h-6zM528 1443q0 -6 -6 -18h17v18h-11zM289 1402v-6q0 -8 35 -35q0 27 35 47q-6 17 -12 17q-58 -4 -58 -23zM382 1414q12 0 12 -18h17v18 q0 11 -11 11h-6q-12 -1 -12 -11zM237 1414v-18h11v18h-11zM475 1402l-6 -11q9 0 24 -12v17q-6 0 -18 6zM254 1396v-11h6v11h-6zM231 1332q29 16 29 24v23h-6q-17 0 -23 -47zM551 1379v-18h6q11 0 11 12l-11 6h-6zM609 1379v-6l52 -29h6v23q-11 0 -58 12zM597 1338v-6h18v6 h-18zM365 1321v-373q1 -19 104 -29q82 0 82 163v157q0 83 -117 93h-58q-11 -1 -11 -11zM656 1315v-12h5v12h-5zM266 1263v-12h11v12h-11zM702 1228v-18q12 0 12 12v6h-12zM691 1175v-6h11v6h-11zM673 1169v-23h12v23h-12zM242 1088v-12h6q14 12 24 12v23h-6q-9 0 -24 -23z M644 1065l-6 -12h18q0 12 -12 12zM231 1001q0 -9 17 -18h6q8 0 18 18v35q-30 -35 -41 -35zM615 937v-18l12 6q10 -6 23 -6l6 12q-34 0 -41 6zM231 913v-11h6v11h-6zM632 861v-6h24q0 9 11 24h-17q-9 0 -18 -18zM277 873v-24h6l6 24h-12zM499 873v-29q8 0 17 17v12h-17z M574 861v-6h12v6h-12zM336 855v-11h23q0 11 -12 11h-11zM580 844l-6 -29v-6l29 -24q-6 0 -6 -5h18v35q0 8 -35 29zM248 832v-6q22 0 76 -41l6 30v5q-5 0 -35 18q-5 0 -47 -6zM673 832v-12h6v12h-6zM225 820v-29q12 0 12 12v17h-12zM464 809h11q12 0 12 11h-12 q-11 -1 -11 -11zM411 803v-12h23v24h-11q-12 -2 -12 -12zM539 803l-6 -29h12q14 11 23 11q0 10 -29 18zM394 797v-12q11 0 11 12h-11zM499 785l-6 -11v-18q35 14 35 24q-20 0 -29 5zM644 774h12v11q-12 -1 -12 -11zM272 780q0 -12 -18 -12v-23h12q0 10 17 29zM376 780v-29h6 v29h-6zM318 768q2 -12 12 -12v12h-12zM411 762q0 -9 23 -17v17h-23zM568 762v-29h18q-6 10 -6 29h-12zM650 762v-11h23v11h-23zM341 751v-18h12v6q0 12 -12 12zM446 745v-12h6v12h-6zM487 745l-6 -12h18q0 12 -12 12zM528 733v-6h5q24 9 24 18h-18q-11 -2 -11 -12zM248 721 v-17h12v29q-12 -2 -12 -12zM295 698h29q12 0 12 12v11h-6q-35 -13 -35 -23zM656 721v-5q1 -12 11 -12v17h-11zM615 716q2 -12 12 -12h5v12h-17zM365 663v-390q41 -11 46 -11h76q58 24 58 139q6 37 6 82q-6 51 -6 64l6 35q-30 81 -93 81h-93zM231 646h11v11q-11 -1 -11 -11z M196 623q9 -24 17 -24h6v24h-23zM691 605v-17h5v17h-5zM213 582v-29h6q13 0 18 29h-24zM627 547v-35h11q0 26 6 35h-17zM696 500v-5h12v5h-12zM225 454q6 -18 35 -18h6l-6 12l6 12h-12zM702 460v-12h12v12h-12zM656 401v-5h11v17q-11 -2 -11 -12zM673 361v-12h6v12h-6z M272 337h17v18q-8 0 -17 -18zM219 337v-11h6v11h-6zM673 314v-6q2 -11 12 -11v6q0 11 -12 11zM627 297v-12q1 -12 11 -12v12q0 12 -11 12zM621 244v-23h6q11 0 11 12zM289 233q0 -15 -12 -29l29 -6l6 11q-17 0 -17 24h-6zM330 227v-6h11v6h-11zM574 198l12 -6q10 6 23 6v6 q0 11 -12 11h-5q-9 0 -18 -17zM434 204v-18h18q-6 11 -6 18h-12zM347 180v-5h12v17q-12 -2 -12 -12zM330 180v-11h11v11h-11zM248 140v-12q2 -12 12 -12q41 28 41 35v18h-6q-47 -20 -47 -29zM452 134l-6 -12q2 -11 12 -11h11q-8 23 -17 23zM347 128v-6h18v6h-18zM301 122 q1 -11 11 -11h6v11h-17z" />
<glyph unicode="C" horiz-adv-x="888" d="M470 1594q177 -33 232 -93q111 -104 111 -279v-122q-12 -64 -58 -64h-152q-52 7 -52 64v17q0 25 12 47q-11 168 -111 168q-81 -15 -81 -75v-902q10 -93 81 -93q105 14 105 81v93q0 21 -6 53q16 70 87 70h99q76 -8 76 -59v-116q0 -299 -297 -378q-41 -6 -70 -6 q-223 0 -326 250q-11 30 -11 105v64q0 19 -6 29l6 35v70q0 47 -6 110q6 12 6 18l-6 11q6 32 6 53v17q0 18 -6 18l6 29v134q0 61 -6 128q6 30 6 69q0 20 -6 99q55 239 105 239q116 116 262 116zM487 1443v-6h18v6h-18zM557 1443v-12h6v12h-6zM336 1431l-6 -11h17q0 11 -11 11 zM376 1425v-5h12v5h-12zM551 1420v-18h6v18h-6zM621 1396v-23h6q0 9 11 23v12h-5q-12 -2 -12 -12zM551 1356h6q29 7 29 17v12h-6q-25 -14 -29 -29zM289 1373q0 -8 18 -17l5 11v12h-5q-12 -6 -18 -6zM667 1367v-6h12v6h-12zM243 1344v-12h5v12h-5zM638 1321v-6h18v6h-18z M633 1303v-23q8 0 17 17v6h-17zM272 1239v-11h11v11h-11zM202 1199v-24h17v6q-5 11 -5 18h-12zM260 1181v-12h6v12h-6zM243 1175v-6h11v6h-11zM260 1164v-6q6 -11 6 -18h29v6q-16 0 -35 18zM231 1117v-12h17v12h-17zM196 1105v-11h6v11h-6zM237 1065q6 -12 6 -18h5v29 q-11 -1 -11 -11zM243 983v-23q11 0 11 12q0 11 -11 11zM243 919v-6h11v6h-11zM231 844v-24q8 0 17 18v6h-17zM190 762v-11h12q0 11 -12 11zM243 745v-12h17q0 12 -12 12h-5zM289 721v-11q2 -12 12 -12h6v23h-18zM260 646v-18q12 0 12 12v6h-12zM248 593l-5 -11v-6h5 q12 0 12 12zM248 518q0 -9 18 -18v18h-18zM248 367q2 -12 12 -12l12 17l-12 6q-12 -2 -12 -11zM225 337v-11q0 -10 29 -18l6 12v17h-35zM656 314q6 -11 6 -17q8 0 23 29v11q-27 -11 -29 -23zM609 268q12 -15 12 -24q46 26 46 35l-11 6q-15 -17 -47 -17zM225 268v-18 q12 0 12 12v6h-12zM592 209v-11h6v11h-6zM266 204q2 -12 12 -12l5 12h-17zM347 186v-6h12v6h-12zM470 169q8 -24 17 -24h12v12q-9 0 -24 12h-5zM406 145v-5l11 -18l-6 -11q29 -18 41 -18v6q0 9 -35 52v6q-11 -2 -11 -12zM371 134v-6h11v6h-11z" />
<glyph unicode="D" horiz-adv-x="900" d="M226 1594q35 0 146 -11q36 5 81 5h29q100 -13 163 -46q169 -109 169 -309v-861q0 -275 -285 -366q-58 -6 -88 -6h-267q-62 0 -70 87q0 33 6 64q-6 82 -6 157v6q0 34 6 93l-6 12l6 29q0 43 -6 64q6 78 6 134v29q0 61 -6 128q6 30 6 70q0 6 -6 17q0 6 6 18q-6 179 -6 232 l6 187l-6 11l6 35v76q0 21 -6 52q0 93 122 93zM284 1460v-11q2 -12 12 -12h6q0 13 6 23h-24zM523 1437v-6h12v6h-12zM587 1431q6 -11 6 -17h11q-5 11 -5 17h-12zM308 1425q0 -9 -12 -23q2 -11 12 -11h17v34h-17zM226 1414q25 -41 53 -41v6q-30 34 -30 41q-10 -6 -23 -6z M372 1402v-17h11v6q0 11 -11 11zM249 1367v-11h6v11h-6zM284 1361v-11h6v11h-6zM284 1344v-41h6l18 12q0 -6 5 -6v29zM372 1332v-1059q46 -11 58 -11h46q52 0 76 81v53l6 35q0 5 -6 5l6 53q0 35 -6 267q0 20 6 169l-6 58q6 36 6 88q0 6 -6 17q5 12 12 64q0 180 -117 180h-75 zM645 1327v-18q9 0 18 18v5q-12 -5 -18 -5zM686 1274v-11h12v11h-12zM628 1245q2 -12 11 -12h18v6q-18 0 -18 18q-11 -2 -11 -12zM692 1233v-5h11v5h-11zM715 1181v-6h23v6h-23zM220 1169l-5 -11q1 -12 11 -12l6 12q0 11 -12 11zM267 1152v-12h6v12h-6zM267 1129v-24 q12 0 12 12t-12 12zM674 1030v-6h12v6h-12zM220 983v-6h6q23 4 23 47h-5q-8 0 -24 -41zM226 948v-11q2 -12 12 -12l6 12q0 11 -12 11h-6zM692 943v-6q13 0 23 -6h6v6q-6 0 -18 6h-11zM244 791q0 -13 29 -17v6q0 11 -12 11h-17zM215 780q0 -31 29 -47v18q-8 0 -24 29h-5z M668 739l-5 -29q11 0 11 -18h18v29q0 9 -18 18h-6zM249 675h6q12 0 12 12h-6q-12 -2 -12 -12zM226 500v-11h6v11h-6zM668 384q2 -12 12 -12v12h-12zM220 378v-29q12 0 12 12q-6 11 -6 17h-6zM244 314v-6h11q12 0 12 12v12h-6q-8 0 -17 -18zM651 332v-29h12v29h-12zM296 273 q2 -11 12 -11v11h-12zM296 233v-6h17v6h-17zM284 198v-6q0 -9 24 -17q29 7 29 17v12zM476 204q2 -12 12 -12v12h-12zM476 186v-6h12v6h-12zM581 180v-23q2 -12 12 -12q11 0 11 12q0 9 -23 23zM348 169v-18q12 0 12 12v6h-12zM407 157v-6h23v6h-23zM354 134q2 -12 12 -12v12 h-12zM313 122v-6h12v6h-12zM279 116v-17h5v17h-5zM506 116v-5q1 -12 11 -12h6v17h-17z" />
<glyph unicode="E" horiz-adv-x="723" d="M164 1594h99q41 0 47 -6q40 6 64 6h211q76 0 76 -52v-129q-8 -76 -59 -76h-239v-397q222 -13 222 -52v-158q0 -61 -94 -64h-128v-392q37 -17 58 -17h88q32 0 81 6q71 -12 71 -59v-111q-4 -93 -65 -93h-438q-46 0 -58 64v53q0 37 6 76q-6 22 -6 46q0 5 6 35l-6 12l6 23 q0 13 -6 65q6 72 6 76q0 14 -6 46q6 68 6 129v29q0 31 -6 53q6 30 6 58v41q0 45 -6 82q6 28 6 76v11q0 13 -6 24q6 11 6 17q0 40 -6 70q6 82 6 158q0 29 -6 87q6 13 12 53q-5 35 -12 35l6 35l-6 82q25 58 64 58zM281 1477h12q11 0 11 12h-11q-12 -2 -12 -12zM258 1466v-12 h29v18q-10 -6 -29 -6zM398 1454h11v12q-11 -2 -11 -12zM439 1460v-12h6v12h-6zM293 1454v-18h17q12 0 12 12l-12 6h-17zM363 1431v-6q0 -9 17 -18v12q0 12 -11 12h-6zM433 1431l-6 -12v-6h18v6q0 12 -12 12zM304 1407v-6h24v6h-24zM240 1396v-6q0 -9 23 -24l12 18v17z M182 1378q2 -12 11 -12v24q-11 -2 -11 -12zM263 1320v-12q12 0 12 12h-12zM252 1244v-12h11v23q-11 -1 -11 -11zM223 1104v-6h11v6h-11zM228 1092v-12h6v12h-6zM263 1063v-12h18v12h-18zM211 934v-11h6q11 0 11 11h-17zM281 853q0 11 -12 11h-6q-11 -2 -11 -11q0 -8 35 -30 h6q35 16 35 24v11q0 12 -12 12q-23 -17 -35 -17zM334 823v-11h17q12 0 12 11q0 12 -12 12h-6q-11 -2 -11 -12zM369 806v-6q1 -12 11 -12q15 12 24 12v18q-24 -12 -35 -12zM217 777q9 0 52 -12v17q-35 0 -35 24h-6q-11 0 -11 -29zM398 794v-17h6v17h-6zM281 788v-11h23v5z M392 771v-12h12v12h-12zM433 747h12v12q-12 -2 -12 -12zM304 718v-11h6v11h-6zM263 712q0 -14 -11 -29l23 -6l6 12q-6 10 -6 23h-12zM281 712v-5h12v5h-12zM188 642v-29h17q-12 19 -12 29h-5zM234 636v-23q12 0 12 12v11h-12zM287 636v-11h6v11h-6zM223 526v-18h11v6 q0 12 -11 12zM223 467v-29h11v17q0 12 -11 12zM217 280l-6 -11l12 -6l5 11zM234 280v-11h12v11h-12zM293 216v-6h11v6h-11zM211 204v-11q2 -12 12 -12l17 23h-29zM339 199v-12h6v12h-6zM287 181q0 -29 29 -47l6 30v5q-9 0 -23 12h-12zM339 181v-12h6v12h-6zM263 175v-11h6 v11h-6zM380 169v-23q9 0 18 18l-12 5h-6zM322 134q-12 -19 -12 -29l12 -6q8 0 17 18q0 8 -17 17zM450 128v-5h12v5h-12zM421 117v-12h6v12h-6z" />
<glyph unicode="F" horiz-adv-x="688" d="M177 1600q70 -6 76 -12q31 6 52 6h24q33 0 40 -6q32 6 53 6h93q33 0 82 6q64 -24 64 -41v-163q-7 -59 -58 -59h-228q-11 -2 -11 -11v-374q0 -7 58 -29l76 11q93 0 93 -70v-117q0 -81 -81 -81h-146v-578q0 -14 5 -24q-18 -64 -64 -64h-146q-52 0 -52 99q-6 4 -6 53 q0 37 6 152q0 28 -6 70q6 87 6 181v29q0 75 -6 117q6 41 6 117v40q0 59 -6 146q6 23 6 47l-6 12l12 58q-6 50 -12 193q6 41 6 70q0 11 -12 41q6 40 6 64v35q18 76 76 76zM299 1501v-6h12v6h-12zM340 1460h6q12 0 12 12h-6q-12 -2 -12 -12zM463 1454v-12h12v12h-12zM235 1442 v-11h6l29 5v6h-35zM299 1436v-11q0 -10 41 -18l6 12q-13 0 -35 17h-12zM270 1407v-17q2 -12 12 -12h6v18q0 11 -12 11h-6zM317 1390l6 -29h11q0 23 24 23v12zM387 1396q2 -12 12 -12q11 0 11 12h-23zM253 1074l-6 -11q0 -14 41 -18v18q-10 0 -35 11zM229 1057v-18h6v18h-6z M241 987v-18q12 0 12 -5q11 5 17 5q0 14 -29 18zM282 946q0 -9 23 -23h6v11q0 12 -12 12h-17zM229 888v-18l29 -6v35h-5q-15 -11 -24 -11zM282 835v-6q16 -47 23 -47q24 9 24 18v6q-23 47 -30 47q-8 0 -17 -18zM346 794v-17q14 11 23 11v6h-23zM440 788v-11h11v11h-11z M276 753q-23 -51 -23 -70l11 -6h24v6l-6 41q10 0 17 29h-23zM329 753v-11h5v11h-5zM352 724v-23h6v23h-6zM218 590v-24h11v24h-11zM276 496l-6 -11v-18h12q0 18 17 18v6zM258 356v-6h12v6h-12zM212 245q6 -10 6 -23h17q0 6 6 17l-12 6h-17zM270 234l-6 -24h18v6q-6 11 -6 18 h-6zM247 187q0 -13 -6 -23l12 -6q0 9 11 23v6h-17z" />
<glyph unicode="G" horiz-adv-x="900" d="M468 1594q239 0 327 -257q12 -26 12 -76v-163q-12 -59 -59 -59h-169q-35 21 -35 70v71l6 35q-16 122 -105 122q-69 0 -82 -87v-888q0 -79 87 -99h6q94 11 94 93v12q0 67 -6 204q-20 27 -41 29q-35 27 -35 141v35q0 47 64 81q79 -5 117 -5h12q33 0 93 5q53 -17 53 -52 v-748q0 -52 -71 -58h-140q-27 0 -41 18q-45 -18 -110 -18q-258 0 -345 298q6 87 6 128v117q0 50 -6 105l6 24q-6 73 -6 87q0 68 6 158q-6 106 -6 140q6 124 6 146q-6 60 -6 93q81 298 368 298zM526 1442v-11h6v11h-6zM310 1419v-12q6 0 18 -6v24q-12 -6 -18 -6zM544 1396 l23 -6v17h-12q-11 -2 -11 -11zM491 1401v-5h12v5h-12zM339 1396v-6h12v6h-12zM328 1384v-12h6v12h-6zM637 1378v-6l6 -29h29v6zM608 1349v-6q2 -12 12 -12q11 0 11 12v6h-23zM602 1302v-11h12v11h-12zM631 1215v-6q0 -8 35 -24v6q0 9 -23 24h-12zM240 1127v-6h12v6h-12z M211 1115v-6h17v6h-17zM246 1022v-18q12 0 12 12zM258 934v-11h5v11h-5zM246 771v-12q12 0 12 12h-12zM637 724v-12q0 -8 18 -17l11 17l-17 12h-12zM672 672v-30h12v30h-12zM631 654l-5 -29h23l-6 29h-12zM608 631v-6h12v6h-12zM672 601v-11h24q0 11 -12 11h-12zM661 584 v-12h5v12h-5zM626 502q1 -11 11 -11q32 5 53 5v6l-6 12l-12 -6l-17 12q-19 -18 -29 -18zM182 409v-18h6q11 0 11 12l-11 6h-6zM666 385v-23h12v12q0 11 -12 11zM626 333v-18h5v18h-5zM637 333v-6h18v6h-18zM614 315v-11h6v11h-6zM299 298v-18h11v18h-11zM661 292 q1 -12 11 -12v12h-11zM631 269v-6q2 -12 12 -12h12q0 8 -18 18h-6zM602 228v-12h6v12h-6zM626 216v-23h11v6q-6 11 -6 17h-5zM456 199v-6q2 -12 12 -12h12v18h-24zM585 187q0 -41 -41 -41v-6q8 0 17 -17q41 10 41 23q-6 23 -6 41h-11zM643 169v-23h18q9 0 23 23q0 12 -12 12 q-19 -12 -29 -12zM339 169q2 -11 12 -11h6v11h-18zM421 158v-12h18q0 12 -12 12h-6zM462 158l-6 -12l12 -6h6v6q0 12 -12 12zM386 140v-17h35v11zM351 123v-12h6v12h-6z" />
<glyph unicode="H" horiz-adv-x="900" d="M174 1600q31 -6 52 -6h18q21 0 53 6q70 -16 70 -64v-596q93 -12 99 -12q87 0 87 71v181q0 60 -5 93q5 33 5 93v94q0 32 -5 82q15 58 58 58q13 0 64 -6l12 6q128 0 128 -58v-1478q-9 -64 -64 -64h-140q-41 0 -58 58l5 41q0 58 -5 140q0 10 5 70q0 20 -5 100q5 115 5 204 q0 7 -17 53h-169v-590q0 -76 -65 -76h-157q-41 22 -41 88l6 58q0 11 -12 41q6 76 6 122v123q0 20 -6 29l6 35v94q0 58 -6 140q6 11 6 17l-6 41q0 15 6 158q0 12 -6 64q6 32 6 47l-6 70q0 4 6 76q0 11 -6 105l6 70l-6 29q0 193 76 193zM647 1454v-6h17v6h-17zM670 1454v-12h6 v12h-6zM238 1355v-18q2 -11 12 -11h6v11q0 9 -18 18zM688 1314v-12h6v12h-6zM244 1302v-6h12v6h-12zM215 1226v-17h17v6q0 11 -11 11h-6zM226 1203v-18h6v18h-6zM653 1174q2 -12 11 -12h6v12h-17zM676 1104v-18h18q0 9 -18 18zM250 1086q0 -9 -12 -23v-12h6q14 12 23 12v11 q0 12 -11 12h-6zM682 1004h12v12q-12 -2 -12 -12zM203 964l-6 -30l12 6h17l30 -6l11 24h-6q-11 -2 -11 -12l-29 18h-18zM688 964v-12h6v12h-6zM308 917v-12h6q12 0 12 12h-18zM600 893q2 -11 12 -11h6v23h-6q-12 -2 -12 -12zM203 888v-6h12v6h-12zM302 853l-11 -18v-17 q0 -14 29 -18q2 12 12 12v-6l-24 -24l12 -5h23v17l6 29q-8 0 -41 30h-6zM594 823l-23 12l-18 -29q38 -35 41 -35h12l35 41l12 -6h35q11 0 11 12v17l-11 -6h-6l-23 18q-19 -16 -65 -24zM448 806h6q12 0 12 12l12 -6h23q-12 23 -29 23q-24 -6 -24 -29zM431 829v-6h12v6h-12z M530 829q0 -9 -12 -23h24v12q0 11 -12 11zM407 823v-11h12v11h-12zM641 782v-11h6v11h-6zM530 777v-12h6v12h-6zM390 765v-18h6q11 0 11 12v6h-17zM267 759v-6h18v6h-18zM612 742v-41h12q16 0 58 35h6v6h-29l-24 -24q-11 0 -11 35q-12 -2 -12 -11zM256 742v-12h5v12h-5z M297 742l-6 -12v-18h17v18q0 12 -11 12zM699 730v-35h6v35h-6zM180 707l11 -6h41q-2 12 -29 23q-23 -9 -23 -17zM513 724v-12h5v12h-5zM337 712v-11h6v11h-6zM238 642v-6h18v6h-18zM705 636v-5h12v5h-12zM244 596v-6h12v6h-12zM653 561h17v17q-8 0 -17 -17zM203 566v-5h12v5 h-12zM238 508q2 -12 12 -12h6q0 9 11 24h-17q-12 -2 -12 -12zM226 409v-6h12v6h-12zM653 403v-12h6q11 0 11 12h-17zM250 380v-35h6v35h-6zM664 333v-18h6l29 6q0 12 -11 12h-24zM244 280v-11h17q0 11 -11 11h-6zM232 228v-12h12v12h-12zM659 216v-23q1 -12 11 -12q0 6 6 6 q-12 19 -12 29h-5zM250 210v-6h11v6h-11zM226 140v-12h6v12h-6z" />
<glyph unicode="I" horiz-adv-x="470" d="M193 1594q175 0 175 -35v-1472q0 -13 5 -23q-18 -64 -64 -64h-145q-38 0 -58 52q0 34 6 146q-6 128 -6 169q6 59 11 69l-11 128q6 32 6 47q-6 81 -6 105l6 23q-6 22 -6 46q0 20 6 30l-12 87l12 75q0 10 -6 70q6 107 6 134q0 5 -6 47l6 29l-6 29q0 6 6 17q0 5 -6 47 q0 238 46 238zM280 1425v-5q0 -9 18 -18v12q0 11 -12 11h-6zM269 1402v-17h11v6q0 11 -11 11zM211 1385l17 -12h12q-12 14 -12 23h-6q-11 -1 -11 -11zM199 1274v-6q4 -35 17 -35h6v6q-11 14 -11 35h-12zM234 1228v-12h6v12h-6zM234 1111v-11h6v11h-6zM275 1111l-6 -11h17 q0 11 -11 11zM187 1105v-11h6v11h-6zM240 896v-12h23l6 29q-6 12 -6 18h-6q-17 -6 -17 -35zM187 745l12 -6h17v23h-11q-9 0 -18 -17zM245 756v-5h12v5h-12zM240 721v-17q8 6 35 6v6q-27 0 -35 5zM228 390v-6h12v6h-12zM275 297v-6h11v6h-11zM269 198v-6q2 -12 11 -12v18h-11 z" />
<glyph unicode="J" horiz-adv-x="516" d="M238 1594h58q110 0 110 -58v-1228q0 -208 -186 -291q-62 -17 -104 -17q-41 0 -47 76q6 31 6 52v29q0 13 -6 23q0 53 70 99q11 26 11 76v93q0 24 6 47q-4 34 -11 151q0 20 5 122q-5 184 -5 273q3 64 11 64l-6 41v76q0 47 -5 110l11 29q-11 46 -17 94q0 133 58 133 q7 6 41 6zM255 1356q0 -9 18 -18l5 12v23h-5q-9 0 -18 -17zM296 1356v-12h6v12h-6zM273 1193v-18h5v18h-5zM249 1169l12 -5v17q-12 -2 -12 -12zM249 1135v-12h6v12h-6zM278 1088q0 -6 -5 -17h23v17h-18zM249 1065v-6h12v17q-12 -1 -12 -11zM255 1030v-18h6v18h-6zM238 989 v-6h11v6h-11zM249 972v-6h12v6h-12zM261 960v-12h6v12h-6zM255 919v-11h6v11h-6zM244 716v-6q14 0 29 -12v18h-29zM267 559v-6h11v17q-11 -2 -11 -11zM284 489v-6h12v6h-12zM267 483v-12h6v12h-6zM255 465v-5h18v5h-18zM296 332v-24h6v24h-6zM273 297v-24h11v6q-6 12 -6 18 h-5zM214 239l-5 -12l11 -6h24v12zM255 227v-18h23v12q-13 0 -23 6z" />
<glyph unicode="K" horiz-adv-x="940" d="M167 1594l41 -6h23q21 0 52 6q81 -19 82 -35v-471q87 86 87 134q10 12 99 227l70 128q45 17 81 17h99q69 0 82 -52l-326 -727q337 -735 337 -745v-12q0 -52 -70 -58h-157q-54 0 -104 157q-119 273 -181 367q-11 19 -11 29h-6v-495q-12 -58 -58 -58h-157q-47 21 -47 99 q0 24 6 64l-6 29q6 51 6 87v24q0 13 -6 23q6 11 6 17q0 51 -6 128q6 120 12 163l-12 157q0 6 6 18q0 12 -6 64q6 245 6 326l6 40q-12 23 -12 64v192q0 70 64 99zM731 1460v-5h12v5h-12zM714 1414h17v11h-5q-12 -1 -12 -11zM691 1408q0 -12 -24 -35l12 -6h6q0 18 11 18 q0 -6 6 -6q0 13 6 23l-12 6h-5zM243 1396v-17h11v17h-11zM621 1361l-6 -11v-12h6q11 0 11 12q0 11 -11 11zM237 1338v-11h6v11h-6zM184 1297l-5 -11h17q0 11 -12 11zM557 1239v-6h29v6h-29zM266 1228v-6h12v6h-12zM225 1222v-6h12v6h-12zM510 1169v-5h18v5h-18zM603 1129v-6 h12v6h-12zM248 1123q0 -9 -11 -23v-6h17l6 29h-12zM283 1088q35 0 35 -17h12v11l-6 29h-17q-9 0 -24 -23zM563 1105v-11q11 0 11 11h-11zM545 1094v-29q12 0 12 11v6q0 12 -12 12zM237 1082v-17q2 -12 11 -12l6 29h-17zM278 1076v-17q11 0 11 12zM464 1065l-12 6h-23v-12 l41 -6h5q15 12 24 12q0 11 -12 11h-12q-11 -1 -11 -11zM295 1041q0 -8 17 -17q14 0 18 29l-12 6h-6q-8 0 -17 -18zM388 1059q0 -17 -70 -93q-11 6 -17 6q-7 -37 -18 -59q-11 6 -17 6v35q0 12 -12 12v-35l6 -12q-12 -2 -12 -11v-12l18 -23v-12l-12 -17v-6h6q11 6 18 6l-6 29 q0 8 17 17q12 0 12 -23l17 12h6q6 0 29 -41q-41 -14 -41 -35q-4 0 -23 -29l12 -18l-12 -5q-10 0 -17 52h-6q0 -6 -6 -6l6 -12v-23h-12v-23h29v-18q0 -11 -29 -11v-6q5 0 47 -6v6q-6 10 -6 23q2 12 12 12h5q24 -35 30 -35q11 -6 17 -6v-11q0 -6 -23 -18l6 -29q-6 0 -6 -6 q17 0 17 -11v-6q0 -12 -11 -12q-7 0 -41 52v18l6 12h-24q0 -18 -11 -18l6 -12v-29h17v-5q0 -21 -23 -47q70 0 70 -23q0 -6 5 -6h6v6l-6 40q35 5 35 12q-6 11 -6 18h6l35 -6h6v6q-19 29 -47 29v11q2 12 12 12q76 -10 76 -41h6v47q0 10 -30 17l6 12q-23 27 -23 35v17 q-12 0 -12 29h-29l-17 -11q-12 0 -12 11v6q0 8 18 18q0 -6 5 -6q0 5 41 35l-6 29v6l41 46q-22 35 -58 35v17q0 14 41 18q75 -14 75 -41h12l-6 12q15 17 23 17v18l-52 6l-35 -6q-9 23 -17 23h-12q0 -23 -12 -23h-5q-10 0 -24 23l18 12l11 -6l6 11v6q0 12 -11 12h-18z M237 1036l11 -6l12 17h-12q-11 -2 -11 -11zM458 1041v-5h12v5h-12zM231 1001v-12h6q11 6 17 6v6h-23zM289 983v-6h18v6h-18zM359 966h12q11 -2 11 -12v-6l-6 -11q-9 6 -29 6v11q2 12 12 12zM342 943q28 -39 52 -47v23l-6 12l18 12h5q12 -2 12 -12v-6q-11 -41 -58 -41 q0 20 -41 41q0 8 18 18zM464 908q-6 -12 -6 -18q6 -11 6 -17h6q0 17 17 17v12q-13 0 -23 6zM440 861v-12h12v12h-12zM237 855v-11h6v11h-6zM324 849v-11q12 0 12 11h-12zM452 844v-18q12 0 12 12v6h-12zM196 809v-12l18 12h34v17q0 12 -11 12q-32 -29 -41 -29zM248 803v-12 h6v12h-6zM487 797l6 -12l-6 -11h6q11 0 11 11v12h-17zM318 780q12 -2 12 -12q0 -12 -12 -12h-11v12q1 12 11 12zM376 768q5 -22 41 -47l6 -29l-12 -5q-32 40 -46 40l-6 12v12q0 8 17 17zM493 745q0 -15 -12 -29h23v17q0 12 -11 12zM318 681l12 -6l6 12v5h-6q-12 -1 -12 -11z M475 634v-17q12 0 12 11v6h-12zM196 628v-11h12q11 0 11 11h-23zM429 605l-6 -35h6q10 0 17 35h-17zM487 599v-6q0 -8 17 -17h18v6q-6 17 -35 17zM237 588v-12l11 -17v-6l-5 -41h29q0 76 -35 76zM388 588v-12h6v12h-6zM539 553v-18h12v18h-12zM458 541v-12h6v12h-6zM307 535 v-6h29v6h-29zM435 524h11v11q-11 -2 -11 -11zM516 524l-6 -12l12 -6l6 12zM278 477h11v12q-11 -2 -11 -12zM237 477v-6q2 -11 11 -11v5q0 12 -11 12zM539 477v-12h6v12h-6zM516 460v-6h12v6h-12zM254 431v-12h12q0 12 -12 12zM586 419v-12h23v12h-23zM632 372q6 -11 6 -17 h12v17h-18zM254 297v-18h12v6q0 12 -12 12zM638 291v-6h12v6h-12zM656 250v-23h11q12 0 12 12q0 11 -12 11h-11zM685 204v-18q23 6 41 6v6q-18 0 -41 6zM225 180v-5h18v17h-6q-12 -2 -12 -12z" />
<glyph unicode="L" horiz-adv-x="689" d="M195 1594h12q32 0 81 -6q11 6 18 6q64 -10 64 -64v-1257q7 0 46 -17q6 0 18 6q58 -6 87 -6l93 6q52 -12 52 -58v-140q-9 -64 -64 -64h-436q-58 0 -58 99q0 54 6 99l-6 52q0 5 6 140q0 49 -6 145q6 82 6 140q0 34 -6 93q6 55 6 151q0 34 -6 41q6 31 6 52v6q0 104 -6 169 q6 56 6 122q0 52 -12 87q6 32 6 53v75q0 57 87 70zM265 1391v-18h6v18h-6zM218 1263v-12h6v12h-6zM213 1007q1 -12 11 -12h6v29q-8 0 -17 -17zM213 966v-6h17v6h-17zM242 721v-17h5q12 0 12 12v5h-17zM247 623l-5 -12v-12h17q12 0 12 12zM247 489v-6h12v6h-12zM259 320 q2 -12 12 -12v12h-12zM218 285v-6q18 0 18 -17h6q8 0 17 17q-14 12 -23 12q-11 -6 -18 -6zM311 244l-5 -29l11 -6h6v6l-6 29h-6zM265 209v-11q30 0 35 17v6h-23q-12 -2 -12 -12zM370 215v-11h5v11h-5zM370 198v-6h11v6h-11zM282 180v-5h12v5h-12zM335 175q0 -14 -35 -18v-6 h35q0 6 6 18v6h-6zM393 145v-5h12v5h-12zM399 134v-12h6v12h-6z" />
<glyph unicode="M" horiz-adv-x="1373" d="M212 1600q162 0 162 -76l315 -1053h23l-18 24q0 13 6 23q-11 19 -11 29q26 0 133 401q30 79 94 332q84 303 116 303q23 11 64 11h93q70 -16 70 -64v-1454q0 -76 -64 -76h-140q-64 0 -64 87l6 58v70q0 50 -6 105q6 40 12 52q-6 121 -18 187q0 34 24 34v6q-24 0 -24 18v29 l-29 6q6 29 12 29q-6 23 -18 40v6q2 12 12 12q12 0 18 -47q25 -23 29 -23l23 18q8 0 17 -18l-11 -17q23 -26 23 -29v-12l-6 -12l12 -6q29 14 29 30l-6 29q6 0 6 5q-47 0 -47 82h18v17l-29 -5l-18 23l24 29q-6 11 -6 17l17 29q-6 0 -6 6l24 24l11 -6l-6 -12v-23q22 0 35 -12 q12 6 18 6v23q-16 0 -29 29v53l6 11l-64 70v-6l5 -69l12 5q29 -15 29 -23q0 -12 -12 -12h-5l-35 30q6 10 6 23q-15 0 -30 11q0 -6 -23 -52l-29 18h-12v-12l30 -23l11 5h6q8 0 17 -17q-63 -46 -64 -64l12 -6h12q52 31 52 41h12v-12q-53 -64 -70 -64q-12 0 -12 6 q-11 14 -11 23h-6q0 -23 -23 -23v-6q9 0 23 -11l11 5q24 -8 24 -17v-6q-15 0 -29 -11h-6q-12 0 -12 17q-11 -2 -11 -12v-5q23 -24 23 -76q-6 -11 -6 -18q12 0 35 -29q12 0 12 -5q-9 -24 -18 -24q0 -6 6 -6q-157 -548 -180 -581l-41 -12h-134q-61 0 -105 227 q-58 204 -116 361v23q8 0 17 17q-8 0 -17 18q8 0 17 17q0 9 -17 18h-12q-9 0 -17 -41l6 -12v-570q0 -52 -70 -58h-134q-51 0 -58 76v5l6 35l-6 12q6 40 6 64v6q0 13 -6 23l6 12l-6 81q6 107 6 134l-6 70l6 29q-6 11 -6 17t6 6l-6 41v17q0 20 6 29l-6 24q0 37 6 151l-6 81 q6 59 6 88q0 31 -6 110q6 66 6 122q0 18 -6 41q6 38 6 76v35q0 104 -12 134q0 61 111 81zM1055 1443q0 -8 18 -18h11v6q0 12 -11 12h-18zM223 1425q2 -11 12 -11v11h-12zM229 1408v-12h6v12h-6zM1090 1402v-29h23q10 0 18 29h-6q-11 -6 -17 -6q-12 6 -18 6zM281 1367v-11h24 v5zM1061 1367v-6h17v6h-17zM1125 1367q0 -9 -12 -23v-6q0 -3 12 -17v-6q0 -9 -23 -18q-19 12 -35 12h-6v-6q23 -29 23 -35q51 0 64 53q0 17 12 17v6q0 8 -35 23zM1172 1356v-12h5v12h-5zM258 1332v-5q2 -12 12 -12h6q11 0 11 12zM328 1321l12 -6v17q-12 -1 -12 -11z M217 1303v-11h18v11h-18zM345 1286v-6h12v17q-12 -1 -12 -11zM235 1228q2 -12 11 -12h24l17 12l-6 11l6 29h6l12 -5v11q0 9 -18 18q-20 -38 -52 -53v-11zM1061 1251v-12q2 -11 12 -11q10 5 23 5q-18 23 -18 35q-8 0 -17 -17zM206 1257v-18q11 0 11 12zM1020 1233v-17h6v17 h-6zM1108 1222v-6h11v6h-11zM310 1199q12 0 12 -18q12 0 12 12v17h-12q-12 -2 -12 -11zM1125 1204q0 -17 -23 -17l6 -29q-16 0 -18 29q-35 -29 -35 -52q16 -12 47 -12q0 6 6 17q-6 0 -6 6q6 0 6 6l11 -6q23 5 23 12l-5 11q11 20 11 35h-23zM322 1152q2 -12 12 -12h11 q24 10 24 41v6q-47 -24 -47 -35zM229 1158q41 -22 41 -29q35 13 35 40q-12 6 -18 6q-17 0 -17 -17h-18v17h-6q-8 0 -17 -17zM991 1164h23q0 11 -11 11q-12 -2 -12 -11zM281 1123q0 -26 -23 -52v-6q18 -19 18 -29q-6 -24 -24 -24q27 -61 53 -64v-5l-24 -24v-29h29v-11 q0 -12 -46 -24v-6l46 -34q0 -7 6 -18l-11 -6l-59 18q0 -12 -17 -12q22 -20 70 -41v-5q-6 0 -6 -6q12 -2 12 -12v-17h-29v23h-6v-12q6 -58 52 -58l12 18l-12 17q0 16 12 35l11 -6h18q0 29 11 29q35 -22 35 -29l-5 -35v-6q37 -2 64 -29h11v6l-17 23v29q-29 5 -29 18v17l17 24 v5l-41 24q-29 52 -29 87l-17 -12h-12q0 29 -35 29v12q2 12 12 12q12 0 12 -18h5v18q0 29 -17 29v11l58 -5q-17 29 -46 29l5 40v18h18q3 -23 17 -23v17q-19 34 -40 47h-6q0 -32 -24 -41h-5q-12 0 -12 12q3 12 29 23q-12 29 -17 29q-12 -6 -18 -6q0 6 -6 6zM997 1100v-18 l41 12v11q-9 0 -24 12q-8 0 -17 -17zM1148 1105v-5q6 -12 6 -18h6l6 23h-18zM1073 1100q0 -18 -35 -24l-41 -23v-12h6l17 12h6q12 0 12 -29h6q52 0 52 41l-12 35h-11zM223 1076v-5h23v5h-23zM1061 1071h12v-6h-12v6zM1014 1024v-12h6v12h-6zM310 1024q12 -19 12 -35v-12h-6 q-9 0 -17 41zM997 1012v-23h17v12q0 11 -11 11h-6zM1108 983l5 -11l-5 -12l11 -6q12 0 12 12v6q0 11 -12 11h-11zM404 954l11 -6l6 12v6h-6q-11 -2 -11 -12zM392 954v-11h6v11h-6zM363 931v-18q2 -11 11 -11l12 6q2 -12 12 -12v12q-12 14 -12 23h-23zM921 896v-6 q2 -11 12 -11v29q-12 -2 -12 -12zM950 879h18v11h-6q-12 -2 -12 -11zM351 873h6q41 -76 41 -82q0 -23 -58 -29q0 -8 -18 -17h-6v17l12 18q-6 11 -6 17q24 12 35 12v11l-29 24zM415 861v-12h35v6q-30 6 -35 6zM1154 861v-12h12v12h-12zM1067 820l-6 -35q12 0 12 -23h5l24 23 q11 0 11 -17h12q17 0 17 23q-5 18 -11 18l-12 -6q-27 17 -52 17zM985 762h6q9 0 23 -23l12 6h6v-6q0 -8 -18 -18q-7 0 -29 30v11zM1137 733h-12q-13 0 -23 6q-9 0 -29 -35h-6v-6q13 0 23 -6q10 6 23 6q12 0 12 -29h23q0 29 12 29q0 -6 6 -6l6 12v12q-12 14 -12 29h-6z M462 739v-6h11v6h-11zM502 727q0 -24 -5 -46h17v35q0 11 -12 11zM345 721v-5h12v5h-12zM898 721v-17h6v17h-6zM386 716v-6h12v6h-12zM212 681v-6h11v6h-11zM485 681v-12h6v12h-6zM852 675v-12h29v6zM287 663q0 -9 -11 -23q17 0 17 -23q41 0 41 35q-30 11 -47 11zM1113 663 v-11h6v11h-6zM916 657v-40q11 0 11 11v29h-11zM1148 652v-24q12 0 12 12t-12 12zM991 646v-12h6v12h-6zM497 640v-12h5v12h-5zM875 623h11v11q-11 -2 -11 -11zM462 628v-29q14 12 29 12v17h-29zM223 611v-12h23v6zM1020 605l-6 -12h18q0 12 -12 12zM252 588h12v11 q-12 -2 -12 -11zM276 599l-6 -29v-11q2 -12 11 -12q24 23 41 23v6q0 8 -29 23h-17zM508 588v-12q12 0 12 12h-12zM846 582v-12q11 0 11 12h-11zM892 570v-11q12 0 12 11h-12zM758 553v-6h12v6h-12zM1102 541v-12h17q12 0 12 12h-29zM805 535v-11h6v11h-6zM625 529 q1 -11 11 -11v11h-11zM741 506v-6q2 -11 12 -11l5 11l-11 6h-6zM1102 495l11 -6v17q-11 -2 -11 -11zM1125 495v-6h12v6h-12zM613 489q0 -12 -12 -12q-5 0 -5 6l-12 -6q-11 6 -18 6l-5 -12v-6q13 0 52 -34h6l6 52zM241 477q-6 -11 -6 -17v-18h-6v-11q12 0 12 11l11 -6h6v24 q0 8 -17 17zM811 471v-6h23v6h-23zM729 460v-12h12v12h-12zM753 460v-12h5v12h-5zM770 454v-23h6q12 0 12 11zM700 442q-23 -33 -23 -41q11 -5 17 -5q18 0 18 29h12v-29h17l-6 11q0 6 6 6q-7 29 -17 29h-24zM264 401q9 -23 17 -23q12 0 12 12q0 11 -12 11h-17zM206 378 q11 -46 23 -46l6 11q-6 35 -18 35h-11zM607 320v-12q2 -11 12 -11q10 6 23 6q6 -9 6 -35h23q0 17 18 17v18q-12 0 -12 5q9 24 17 24v-24q10 6 30 6l-6 29v12h11v23h-17q-26 -32 -58 -35q-8 -23 -47 -23zM758 378v-17h6q12 0 12 11v6h-18zM1125 372q0 -14 -12 -29l12 -6 l12 30zM741 367v-6h12v6h-12zM770 355v-6h18v6h-18zM724 279q-35 -30 -35 -40q-6 0 -6 -6l29 -6h12q11 0 11 12v29q0 11 -11 11zM770 279l-6 -29h12v29h-6zM1131 256v-6q2 -11 11 -11v29q-11 -2 -11 -12zM630 262v-6l6 -29q-11 -2 -11 -12h29q0 20 6 29q-6 12 -6 18h-24z M241 250v-35h5v35h-5zM677 227l-6 -12h18q0 12 -12 12zM1154 209v-11h6v11h-6zM1108 204v-12q11 0 11 12h-11zM671 198q0 -13 -6 -23l29 -6h6v17q0 12 -11 12h-18zM648 169v-12h17q0 12 -11 12h-6z" />
<glyph unicode="N" horiz-adv-x="970" d="M170 1600q73 -6 82 -6q4 0 35 6q101 0 117 -93l204 -602h6l12 6q-6 11 -6 17q0 5 6 36l-6 11q11 26 11 76v18q0 116 -5 157q5 65 5 170v23q0 47 -5 111q22 70 70 70h117q50 0 75 -41v-1501q-11 -58 -58 -58h-146q-65 0 -105 216q-53 117 -146 409q-18 0 -47 99 q-11 0 -11 23h-6v-659q0 -14 6 -24q-19 -64 -65 -64h-157q-18 3 -47 53q6 58 6 87v228l6 35q-6 0 -12 193l6 11q0 7 -6 18q6 98 6 152q0 86 -6 163l12 117l-12 47q6 49 6 81v53q0 13 -6 23q6 12 6 18q0 85 -12 233q19 88 70 88zM228 1466h12v11q-12 -1 -12 -11zM211 1454v-6 l6 -41h17q-11 22 -11 47h-12zM778 1448v-12h5v12h-5zM737 1442v-11h11v11h-11zM742 1425v-12h6v12h-6zM269 1419l-17 -35l-12 6h-12q8 -29 18 -29h47l-12 17v6q12 23 29 23v6q-11 0 -11 6l-12 -6q-11 6 -18 6zM789 1361q0 -20 -6 -30l12 -5q12 0 12 11v24h-18zM328 1296v-11 h6q8 0 17 17v12h-6q-8 0 -17 -18zM217 1308v-6q2 -11 11 -11v17h-11zM258 1302v-17h11v17h-11zM287 1267q12 -14 12 -23q17 29 29 29q0 12 -12 12h-12q-8 0 -17 -18zM334 1267v-6q1 -11 11 -11h6q12 0 12 11v6q0 12 -12 12h-6q-11 -2 -11 -12zM748 1238v-12h6v12h-6z M281 1232l-6 -23l24 -18l5 12v29l-11 -6zM328 1203q0 -29 -18 -29q0 11 -11 11q-11 -5 -24 -5v-12q15 0 29 -12h12q35 22 35 29v6q0 12 -12 12h-11zM228 1174v-12h12v12h-12zM357 1150q0 -29 -29 -29v-12l-6 -40q6 0 6 -6q-24 -9 -24 -18q6 -11 6 -17q-6 -12 -6 -18h24 q8 0 17 18l-11 29h5l24 -12l-6 -11v-18q15 -29 23 -29l30 6v6q-30 0 -30 11l18 64l-18 -11h-11l-12 6q18 35 18 40l-6 41h-12zM228 1104h24l6 29v12q-30 -12 -30 -41zM275 1139v-6q9 -24 18 -24h23v18q0 12 -12 12h-29zM386 1109l6 -29h23v24zM252 1045h6q41 0 41 53 q-12 6 -18 6q-16 0 -29 -59zM772 1080v-11h6v11h-6zM439 1074v-5h11v5h-11zM264 1022q0 -26 -6 -35q11 0 11 -18h12q12 0 12 35l-24 18h-5zM696 1004l29 -23q0 6 6 6q-12 19 -12 29h-12q-11 -2 -11 -12zM217 1010v-23h6v23h-6zM339 987q-9 -23 -40 -23v-30l-41 -46h-6l-41 5 v-17q23 0 23 -12l12 6l29 -17l24 17q11 -2 11 -12v-5q0 -9 -17 -18h-12l-17 12h-6v-53l17 -23h-6q9 -24 18 -24q0 6 6 6l-6 29v6l35 -23v12q0 5 -12 46l12 6q0 -9 23 -23h18l-12 17v6q35 0 35 -29h24q11 0 17 47q-39 17 -52 17l-36 -6l-11 18q47 17 52 17q6 -11 6 -17h6 q0 17 18 17v6q-35 6 -35 18v17q0 12 17 12v6q-23 6 -41 6v17h18v6zM415 987v-6h12v6h-12zM398 946v-18q0 -8 17 -17h6l12 53v11h-6q-8 0 -29 -29zM725 946q-12 -36 -12 -47l12 -6l29 6v6q-20 0 -23 41h-6zM515 940v-12h6v12h-6zM532 928h12v12q-12 -2 -12 -12zM334 923 l5 -12l-11 -6l-6 12zM439 911v-23q23 8 23 17q-13 0 -23 6zM474 911q0 -10 -18 -29q29 0 29 -12v-6l-29 6q0 -6 6 -6l-6 -29v-12l12 -17q-6 0 -6 -6l-12 6q-9 0 -35 -41q6 -18 12 -18q4 0 64 41v-6l-6 -29q6 0 6 -6l30 6h5l12 -6l18 24q-35 11 -35 29h-6l-12 -6q0 10 -18 29 q0 25 30 59q0 9 -41 29zM544 911q-12 -19 -12 -35v-6q0 -8 18 -17h6q0 14 5 46zM655 905v-6h12v6h-12zM643 858v-17l12 -18v-11q0 -7 -53 -30l-6 12v6q0 12 24 12v17h-6q-19 -11 -29 -11l-6 11q12 0 12 12v6h-30q0 -15 -11 -29v-6q70 -54 70 -100v-11q0 -12 -12 -12 q-13 0 -17 29h-6v-17q6 -12 6 -18q-10 0 -24 -23v-6q16 -29 24 -29l-6 -12v-6h46q7 0 24 47v6h-18q-26 -29 -35 -29l-11 17q0 16 40 35h12l18 -11h11v5q-17 22 -17 41v6h12q0 -20 35 -35h5v35q30 33 30 76h-6l-12 -6q-35 14 -35 24q7 18 58 35q0 11 18 11v6q-37 0 -53 18h-5 l-24 -35h-17l6 29v11q-8 0 -24 -35zM421 888v-12h12q0 12 -12 12zM789 870q2 -12 12 -12v12h-12zM205 847v-6h12v6h-12zM363 794v-17q12 0 12 11v6h-12zM672 788q27 -11 30 -23v-6q0 -12 -12 -12q-4 0 -35 35q11 6 17 6zM754 777v-18h12v18h-12zM228 759v-6q2 -11 12 -11 l6 11v6h-18zM567 753v-11h6v11h-6zM772 747v-11h6q11 0 11 11h-17zM748 742l-23 -30q12 0 12 -17h17q0 23 24 23q-1 8 -30 24zM258 718v-6q11 0 29 -23l17 23v18q-5 0 -46 -12zM532 724l-6 -12q2 -11 12 -11l6 11q0 12 -12 12zM322 718v-23h6q9 0 17 23h-23zM421 718v-11h6 v11h-6zM485 712v-29h6q0 9 12 24l-12 5h-6zM246 660v-6q14 0 47 -23q0 11 17 11v18l-11 -6h-18l-17 12q-12 -6 -18 -6zM509 666v-12q2 -12 12 -12h17v12q-10 0 -29 12zM742 666q0 -24 -11 -24q-12 6 -18 6l-11 -6q-11 6 -24 6l-23 -35q-12 -2 -12 -12q24 -12 24 -29l11 6 l12 -6q0 6 6 6l6 -12q-63 -52 -71 -52v-12q28 0 36 -23q-8 -6 -41 -6v-6q19 0 29 -6q-12 -24 -12 -35h6l29 29l24 -17h5q0 35 53 64l-6 12l-29 -6h-6l-12 6q0 -12 -11 -12h-12q-8 0 -17 18q0 11 35 11q0 -11 29 -11q0 11 23 11v18q-29 0 -29 17q0 48 41 100h-24zM702 619h5 v-12h-5v12zM526 607q2 -11 12 -11v11h-12zM211 601v-11h12q0 11 -12 11zM608 555l12 -6h23v23h-17q-9 0 -18 -17zM591 566l-6 -29l11 -6l6 12v12q0 11 -11 11zM766 566v-11q17 0 17 -18h6q12 0 12 12v6q0 11 -12 11h-23zM269 549v-12l30 -6v30q-15 -12 -30 -12zM766 526v-18 h23v23q-10 -5 -23 -5zM252 502v-11h12q0 11 -12 11zM795 502v-6h12v6h-12zM217 479q2 -12 11 -12h6v12h-17zM742 455v-11h47v6q0 8 -17 17h-18q-12 -2 -12 -12zM591 438l23 -23q23 8 23 17q-14 0 -46 6zM707 432q0 -33 -40 -47h-6q-6 12 -6 18q-8 0 -29 -29h35v-18h23 q14 18 64 47v12zM199 426v-11q2 -12 12 -12h6v12q0 11 -12 11h-6zM778 385v-5q1 -12 11 -12l6 12l-12 5h-5zM760 374v-18h6v18h-6zM690 339l6 -24q0 -5 -24 -35v-6q2 -11 12 -11q0 10 41 29q12 19 12 35v6q0 9 -24 23h-11q-12 0 -12 -17zM742 333l18 -12h12v29h-6 q-24 -8 -24 -17zM766 309v-23h6v23h-6zM719 280v-17q2 -12 12 -12q11 0 11 12zM234 245v-6q2 -11 12 -11l6 11q-6 12 -6 18q-12 -2 -12 -12zM778 257v-18q11 0 11 12v6h-11zM702 234q0 -8 52 -35l6 11v12l-12 17q-22 -5 -46 -5zM246 187q0 -12 -18 -12v-6q0 -7 36 -23 q0 6 5 6q-13 35 -23 35zM696 187v-6h11v6h-11zM211 169v-11h6v11h-6zM742 169v-11h6v11h-6z" />
<glyph unicode="O" horiz-adv-x="917" d="M457 1594q256 0 339 -263q12 -63 12 -146v-759q0 -291 -205 -391q-86 -35 -163 -35q-129 0 -246 105q-99 127 -99 234q6 149 6 175q0 19 -6 99q0 5 6 35q-6 52 -6 64q6 142 6 181l-6 12q6 10 6 23v24q0 52 -6 70q6 51 6 87v158q0 93 93 222q130 105 234 105h29zM521 1472 v-6q2 -12 12 -12h18v6q0 12 -12 12h-18zM416 1466v-12q6 0 18 -6v12q-6 0 -18 6zM323 1448v-6h11v6h-11zM486 1442v-11h6v11h-6zM486 1425v-12h12v12h-12zM253 1361q2 -12 11 -12h12v12h-23zM299 1355v-6h12v6h-12zM679 1343q0 -6 -6 -17q9 -24 18 -24v29q0 12 -12 12z M358 1226v-858q25 -111 93 -111h6q38 0 82 70q6 162 6 269q0 27 -6 58q6 30 6 70v6q0 47 -6 111q12 29 12 41q-12 40 -12 70q0 53 6 193q0 4 -6 35q6 30 6 70v5q0 57 -100 82q-87 0 -87 -111zM200 1285v-6q2 -12 12 -12h11v12zM247 1226v-6h6q8 0 17 18h-11q-12 -2 -12 -12z M247 1203v-12h6v12h-6zM650 1197v-17h6v17h-6zM264 1150v-17h6v17h-6zM702 1133v-6h12v6h-12zM212 1104v-6q2 -12 11 -12h6q12 0 12 12l-12 6h-17zM223 1010v-6h12v6h-12zM276 987v-12h6v12h-6zM662 975v-6h11v6h-11zM212 952v-6h11v6h-11zM235 858v-5q12 0 12 11v6 q-12 -2 -12 -12zM720 870v-12h6v12h-6zM697 858v-17h11v6q0 11 -11 11zM685 812v-6q6 -11 6 -18h6v24h-12zM247 771v-12h6v12h-6zM697 759v-17h11v5q0 12 -11 12zM673 753v-11h12v11h-12zM188 677v-5h12v5h-12zM247 631v-6h23v11h-6q-11 -5 -17 -5zM183 607v-23q14 12 23 12 q0 11 -12 11h-11zM702 590q12 0 12 -18h6q12 0 12 12v6q0 11 -12 11h-6q-12 -1 -12 -11zM253 596l-6 -12q12 -19 12 -29h5v29q0 12 -11 12zM650 578v-6h12v6h-12zM247 543v-12h6v12h-6zM218 520v-6q4 -41 11 -41q12 6 18 6v6q-24 21 -24 35h-5zM638 455q2 -11 12 -11v23 q-12 -2 -12 -12zM679 461v-11h6v11h-6zM691 450v-24q11 0 11 12t-11 12zM212 426h17v12h-6q-11 -2 -11 -12zM212 420v-11h6v11h-6zM691 385v-11l29 6v11q-10 -6 -29 -6zM720 350q2 -11 12 -11v11h-12zM259 339v-30h17v6q-12 15 -12 24h-5zM632 339v-6h12v6h-12zM270 269 q-17 -23 -17 -35h6q29 4 29 17q0 8 -18 18zM580 239h17v18q-8 0 -17 -18zM609 228v-12q12 0 12 12h-12zM556 222v-12h6v12h-6zM323 210v-23l23 -6l6 12q0 13 -29 17zM393 210v-6q0 -8 17 -17v23h-17zM276 199v-6h18v6h-18zM545 169l23 -17h12v12h6q5 0 5 -6q11 6 24 6v11 q-9 0 -24 12q-46 -6 -46 -18zM422 158l-6 -30h18q0 10 11 24l-11 6h-12zM498 152v-6h18v6h-18zM364 128v-11h6v11h-6z" />
<glyph unicode="P" horiz-adv-x="859" d="M199 1600h18q49 0 122 -12q24 12 35 12q444 0 444 -380v-309q0 -284 -262 -380q-59 -11 -106 -11h-81v-432q0 -14 5 -24q-18 -64 -64 -64h-146q-35 0 -52 41q-6 172 -6 222q6 72 6 76q-6 11 -6 17l6 12q0 19 -6 29q6 76 6 123v64q0 148 -12 181q6 32 6 53v58q0 97 6 152 q-6 45 -6 152q0 30 6 52q-6 39 -6 76v93q0 34 6 94q-6 10 -6 29q0 57 93 76zM299 1489l-6 -12v-5q2 -12 11 -12l12 17zM246 1472v-18h6v18h-6zM456 1472v-6q0 -9 18 -18v12q0 12 -12 12h-6zM515 1472v-24q11 0 11 12t-11 12zM211 1431l6 -30h17v18q0 12 -11 12h-12z M264 1431v-18q1 -12 11 -12h12v6q0 9 -23 24zM322 1413v-6q0 -8 29 -23q6 11 6 17q-6 12 -6 18q-10 -6 -29 -6zM398 1413v-17h6v17h-6zM526 1413v-6h12v6h-12zM363 1384v-12h6v12h-6zM287 1343v-6q13 0 23 -6q6 24 18 41l-12 6h-6q-7 0 -23 -35zM614 1372l-6 -23h18v23h-12z M234 1349v-12h18q0 12 -12 12h-6zM369 1326v-532l52 -17q6 0 18 5l29 -5q82 0 82 128q0 229 11 333q-32 99 -105 99h-76q-11 -2 -11 -11zM643 1331v-17h6v17h-6zM702 1314v-6h11v6h-11zM234 1285v-6h12v6h-12zM217 1244v-12h6v12h-6zM258 1215v-6h11v6h-11zM264 1168l11 -6 v18q-11 -2 -11 -12zM702 1162v-12q11 0 11 12h-11zM684 1127q2 -12 12 -12h6v6q-6 11 -6 18q-12 -2 -12 -12zM199 1098l12 -6v17q-12 -1 -12 -11zM211 1057v-12h29q12 0 12 12q-6 11 -6 17h-6q-19 -17 -29 -17zM193 981v-17h6v17h-6zM690 952v-18h6v18h-6zM258 923v-18h17 q0 9 -17 18zM672 923v-18q12 0 12 12v6h-12zM672 876v-23h6q12 0 12 11q0 12 -12 12h-6zM264 870v-6h11v6h-11zM258 847h11v11q-11 -1 -11 -11zM205 841v-6h12v6h-12zM637 823q0 -13 -6 -23h12q23 9 23 18l-11 5h-18zM702 818v-12h5v12h-5zM275 782v-5q2 -12 12 -12h12v6 q0 11 -12 11h-12zM637 765v-12h6v12h-6zM246 759v-23h12q11 0 11 11q0 12 -11 12h-12zM205 747v-5q2 -12 12 -12v17h-12zM567 747v-5q2 -12 12 -12l12 17h-24zM602 742q2 -12 12 -12h6v12h-18zM234 724v-23h6v23h-6zM281 724q-12 -48 -12 -52l12 -6q6 29 12 29l-6 12 q6 11 6 17h-12zM497 724v-12q0 -8 18 -17h5v29h-23zM363 689v-6h17v6h-17zM310 666q0 -18 -11 -18h-6q-12 0 -12 12q-41 -6 -41 -18q18 0 18 -23q-6 -11 -6 -18l-29 6l-6 -11l11 -6h30l-6 11q10 0 29 12q12 -14 12 -23h23l-6 11q0 6 6 6l-6 12q2 12 12 12l35 -6v11h-12v12 h18v6q-13 0 -24 6q-11 -6 -17 -6q0 12 -12 12zM310 508v-12h6v12h-6zM211 496v-11h23v6zM246 473v-23h12v23h-12zM293 438v-6h11v6h-11zM264 403v-6h11v6h-11zM246 292v-12h18q0 12 -12 12h-6zM217 222l6 -12l-12 -17v-12q17 12 47 12v11q-10 0 -30 18h-11zM287 193v-6h12v6 h-12z" />
<glyph unicode="Q" horiz-adv-x="897" d="M456 1594q243 0 344 -245q12 -73 12 -123v-840q0 -248 -216 -356q44 -76 123 -76q17 -29 17 -47v-134q-6 -70 -64 -70q-189 0 -304 187q-40 121 -52 122q0 20 -64 53q-140 111 -140 251q-6 0 -12 58q6 157 6 251v239q0 14 -6 24l6 11q0 25 -6 47q6 104 6 175v35 q0 47 -6 123q83 315 356 315zM468 1436l11 -5q12 26 12 58h-6q-14 0 -17 -53zM328 1442v-6q1 -11 11 -11h6v6q0 11 -12 11h-5zM532 1431v-12h12v12h-12zM631 1401h18v12h-6q-12 -2 -12 -12zM596 1390v-6h29v6h-29zM374 1384v-6h18v6h-18zM269 1372q9 -64 29 -64v23l-17 24 l6 11l-12 6h-6zM368 1261v-904q0 -57 59 -88h64q64 35 64 123q6 0 6 6l-6 29q0 41 6 46l-12 386l6 40l-6 35q6 117 6 205v58q-11 140 -105 140q-82 -15 -82 -76zM608 1326v-6h17v6h-17zM304 1314q2 -12 12 -12v12h-12zM258 1279v-18h11v18h-11zM643 1244v-12h11v12h-11z M228 1226v-11h6v11h-6zM234 1209l-6 -35h18v35h-12zM234 1104v-18h6v18h-6zM684 1069v-12q14 12 29 12l-6 29q-8 0 -23 -29zM666 1040l-6 -30v-23q8 0 29 35q-5 11 -5 18h-18zM217 835v-23q11 0 11 12q0 11 -11 11zM211 754v-6h17v6h-17zM193 748v-6h12v6h-12zM234 742v-12 h6v12h-6zM643 654v-11h11v11h-11zM678 625q0 -13 -6 -23v-6h6q0 6 6 17v12h-6zM193 619v-11h6v11h-6zM223 584l11 -6v18q-11 -2 -11 -12zM695 578q0 -11 -23 -29v-11h6q14 11 23 11v29h-6zM269 526v-6h12v6h-12zM724 520q0 -6 -5 -17h11q0 6 6 17h-12zM199 514q0 -8 18 -17 v17h-18zM678 497v-12q11 0 11 12h-11zM193 450v-6l6 -11q12 5 18 5v12h-24zM654 433v-12h6v12h-6zM234 421v-6h12v6h-12zM228 392h6q12 0 12 11h-6q-12 -1 -12 -11zM252 316q0 -9 17 -18h18v18q0 11 -12 11h-12q-11 -1 -11 -11zM707 327v-5h12v5h-12zM637 275v-18 q12 0 12 12v18q-12 -2 -12 -12zM660 281v-12h6v12h-6zM579 246v-6q1 -12 11 -12l6 12v6h-17zM287 240v-12q11 0 11 12h-11zM608 222q0 -8 17 -17v6q0 11 -11 11h-6zM479 205v-12h12v12h-12zM351 193l-6 -11h23v5q-6 0 -17 6zM368 176v-12h6v12h-6zM363 152q17 -13 17 -40h18 v23q0 6 -6 6l6 11v12q-14 -12 -35 -12zM462 158q0 -23 -29 -23l5 -41v-23l-11 -18l29 -11q11 5 18 5v6q-24 0 -24 18v23q24 25 24 47v17h-12zM538 117v-11q11 0 11 11h-11zM514 112v-12h6v12h-6zM584 106v-18h12v18h-12zM497 94v-12h6v12h-6zM374 82v-5h12v5h-12zM409 65 q2 -12 12 -12v12h-12zM514 53v-6q18 0 18 -17l-12 -24h18l6 41v12zM433 -5v-6h11v6h-11zM514 -23q0 -6 47 -46h18v5q-41 33 -41 41h-24zM479 -40v-6q6 -11 6 -18h18v24h-24zM590 -99l-11 -17v-6h11l29 6v17l-11 -5q-12 5 -18 5z" />
<glyph unicode="R" horiz-adv-x="900" d="M173 1600q50 -6 82 -6l12 6l11 -6q6 0 18 6l70 -6q31 0 111 6q105 0 245 -105q93 -123 93 -245v-357q0 -138 -75 -233v-6q75 -104 75 -234v-356q-9 -64 -64 -64h-146q-46 0 -52 58q0 6 6 47l-6 29q0 6 6 6l-6 41v41q0 19 6 29q0 6 -6 18q6 98 6 151v6q-29 94 -106 94h-81 v-444q0 -76 -65 -76h-157q-12 0 -47 58l6 59v169l6 35q-12 23 -12 64v59q0 32 6 82l-6 11q6 10 6 29l-6 35q0 7 6 18l-6 53q0 26 6 75l-6 35q6 65 6 117v70q0 21 -6 53q4 10 12 82q-6 40 -12 52q6 122 6 199v175q11 70 64 70zM337 1489v-17h5v17h-5zM512 1483v-23 q23 9 23 17q-13 0 -23 6zM249 1466v-18q0 -8 18 -17v23q0 12 -12 12h-6zM377 1460v-29q12 0 12 11v6q0 12 -12 12zM278 1431v-24q18 12 47 12v29h-6q-26 -17 -41 -17zM342 1401v-5h12v5h-12zM366 1396v-6h11v6h-11zM488 1396v-12h12q0 12 -12 12zM196 1366v-29h12l6 29h-18z M290 1366v-11h6v11h-6zM599 1361v-12q2 -12 12 -12l6 12v12h-18zM243 1355l-6 -29l24 -12v12l-6 29h-12zM372 1337v-543q45 -17 64 -17h29q58 0 88 81v65q0 24 6 46l-6 30q6 172 6 256q-35 82 -111 82h-76zM658 1337v-17q2 -12 11 -12h6v6q-8 23 -17 23zM710 1314v-18h6v18 h-6zM681 1296v-5h24v5h-24zM272 1279h12v12q-12 -2 -12 -12zM220 1203q2 -12 11 -12v12h-11zM675 1168v-12h6q9 0 18 18v6h-12q-12 -2 -12 -12zM634 1162v-12h6v12h-6zM705 1092v-12q11 0 11 12h-11zM208 1034v-12q12 0 12 12h-12zM208 975l-6 -11h18q0 11 -12 11zM669 934 v-17h12v6q0 11 -12 11zM623 888q2 -12 11 -12h6v12h-17zM249 876v-12h6v12h-6zM640 870v-12h6v12h-6zM237 794v-23q41 23 41 29q-11 0 -11 12q-30 -8 -30 -18zM640 765l-11 -18v-17q13 0 23 -6q0 6 6 18q-9 23 -18 23zM272 759q0 -9 -11 -23v-12h6q7 0 23 35h-18zM296 759 v-12l29 -5h6q0 9 -35 17zM243 701v-6q0 -13 53 -23h6q11 0 11 11q-13 35 -23 35h-6v-11h-12l6 11h-6q-29 -7 -29 -17zM594 718v-11h5v11h-5zM430 695v-18q12 0 12 12v6h-12zM570 666v-6h29v6q-5 11 -5 17h-6q-9 0 -18 -17zM623 666v-6h11q12 0 12 12v5h-12q-11 -1 -11 -11z M342 666l-5 -30h17l-6 30h-6zM488 666v-18q30 8 30 18h-30zM377 660v-6q9 -23 18 -23l6 29h-24zM231 654v-6h12v6h-12zM278 631l53 -47v29q0 6 -41 29q-12 -1 -12 -11zM243 636q0 -15 -17 -35q17 0 17 -17h18l-6 12v40h-12zM669 636v-17q12 0 12 12zM582 631v-6 q2 -12 12 -12l5 12v6h-17zM372 625v-6h11v6h-11zM348 596v-6h24v6q0 11 -12 11q-12 -2 -12 -11zM605 561l12 -6q11 6 17 6v46q-29 -15 -29 -46zM553 596v-12h6v12h-6zM576 584v-12h6v12h-6zM261 543q0 -20 41 -29v41q0 11 -12 11h-12q-9 0 -17 -23zM226 520v-18h5 q19 12 30 12v6h-35zM617 520v-18q12 0 12 12v6h-12zM284 473h23v12h-11q-12 -2 -12 -12zM202 450v-6h12v6h-12zM278 397v-12q12 0 12 12h-12zM214 380v-6h12v6h-12zM681 327v-6q2 -12 12 -12l6 12v6h-18zM699 304l-6 -30h17l-5 30h-6zM226 298v-12h5v12h-5zM652 164v-12h6 v12h-6zM699 158q0 -9 23 -18v18h-23z" />
<glyph unicode="S" horiz-adv-x="900" d="M454 1600q156 -28 222 -82q123 -116 123 -274v-146q-12 -59 -59 -59h-146q-38 0 -58 53q6 82 6 140v6q0 75 -105 99q-82 -19 -82 -76v-99q0 -111 228 -263q216 -160 216 -397v-134q0 -269 -287 -362l-81 -6q-230 0 -321 257q-12 23 -18 70q0 11 6 105l-6 70q0 64 181 64 q82 -15 82 -64v-152q0 -56 82 -87h29q82 0 82 181q0 175 -152 268q-281 207 -281 333q-7 0 -23 82q6 40 6 64q0 12 -6 12l6 29v76q41 155 163 239q100 53 193 53zM384 1419v-6h29q-6 10 -6 23h-5q-9 0 -18 -17zM606 1413v-6l6 -41h17q12 0 12 12q-8 24 -29 35h-6zM477 1390 v-12h18q0 12 -12 12h-6zM226 1378v-12h6q12 0 12 12h-18zM548 1372v-6q0 -9 23 -23q12 0 12 12v11zM250 1326v-6h11v6h-11zM291 1326l5 -41h6l6 35l-12 6h-5zM594 1296v-5h12v5h-12zM623 1291q9 -24 18 -24l12 18l-18 11zM203 1261v-17h12q11 0 11 11zM694 1250v-12h5 q12 0 12 12v11h-6q-11 -2 -11 -11zM629 1209v-6h12v6h-12zM238 1203v-18h35v18h-35zM180 1145v-6h11v6h-11zM302 1080v-6h12v6h-12zM285 1045v-11h11q0 11 -11 11zM261 993v-6h12v6h-12zM343 940v-6h18v6h-18zM314 905h12v12q-12 -2 -12 -12zM366 888v-12h6v12h-6zM419 882 v-12h18q0 12 -12 12h-6zM524 806l-6 -12l30 -23h5v17q0 10 -29 18zM472 782v-11h5q12 0 12 11h-17zM629 724v-35l12 6l12 -6v6q-12 14 -12 29h-12zM530 718v-11q12 0 12 11h-12zM600 625v-6h18v6h-18zM618 607v-6h17v6h-17zM641 607v-11h6v11h-6zM635 514v-6h18v6h-18z M653 432l-6 -12q2 -11 11 -11h18q0 9 -23 23zM273 345v-18h6v18h-6zM250 292q1 -12 11 -12v12h-11zM215 286v-17h5v17h-5zM664 274v-17l30 6v6zM320 263q2 -12 11 -12h6v12h-17zM238 257v-6h18v6h-18zM273 239q2 -11 12 -11q23 8 23 17v6h-23q-12 -2 -12 -12zM583 239v-23 q35 12 35 23v6q-9 -6 -35 -6zM250 222v-29h6q0 17 17 17v6zM320 199v-6h11v6h-11zM448 169v-5h12v17q-12 -2 -12 -12zM320 175l-6 -11v-6q0 -9 35 -30v6q0 30 -29 41zM390 175v-6h12v6h-12zM583 152v-6h11v6h-11z" />
<glyph unicode="T" horiz-adv-x="741" d="M70 1600l58 -6h70q47 0 110 6q12 -6 18 -6q13 0 23 6q104 -6 169 -6h64q24 0 64 6q64 -17 64 -58v-151q0 -59 -93 -59h-128v-1268q-12 -58 -58 -58h-163q-25 12 -41 52q0 21 6 53q-6 101 -6 128q0 72 6 133q-6 108 -6 181t6 273q-6 70 -6 105l6 58q0 13 -6 23q6 50 6 82 v163q0 12 -18 75h-139q-53 0 -70 47l6 12q0 6 -6 17l6 29q0 24 -12 99q33 64 70 64zM495 1513v-12h11q0 12 -11 12zM221 1489q0 -10 -17 -29h29v18q0 11 -12 11zM303 1420v-6h5q43 0 47 17v6q-52 -7 -52 -17zM564 1437q2 -12 12 -12v12h-12zM367 1431v-29h5v29h-5zM407 1431 q-6 -11 -6 -17q12 -19 12 -29q-6 0 -6 -6h18l-6 12q12 0 12 11v23zM157 1425v-5q2 -12 12 -12v17h-12zM244 1396q18 0 18 -35h11l6 30v11l-6 12q-29 -8 -29 -18zM454 1414v-6q6 -17 11 -17q12 5 18 5q0 9 -18 18h-11zM372 1350v-6h12v6h-12zM326 1327v-6l41 -6q0 9 -24 23 h-6q-11 -2 -11 -11zM390 1327q0 -9 17 -18h6v18q0 11 -12 11q-11 -2 -11 -11zM367 1204v-5q1 -12 11 -12v17h-11zM337 1193v-6h24v6h-24zM384 925h6q11 0 11 12q-5 0 -5 6q11 0 11 11v23q-13 0 -23 -52zM349 908v-18h6q12 0 12 12v17h-6q-12 -2 -12 -11zM390 884v-5h11v5 h-11zM326 733l-6 -29v-6q8 0 17 18q-5 11 -5 17h-6zM308 657v-11h24v11h-24zM343 535v-6h24v18q-15 -12 -24 -12zM367 175v-6h23l-6 11q-11 -5 -17 -5z" />
<glyph unicode="U" horiz-adv-x="902" d="M292 1594q76 -17 76 -41v-1128q0 -163 99 -163h17q64 18 64 64v11q0 64 6 82q-6 58 -6 87q0 85 6 361q-6 73 -6 87q6 31 6 58q0 15 -6 47q6 45 6 99v11q0 24 -6 47q6 23 6 47q0 57 -6 139q0 5 6 47q-6 41 -6 70q0 75 111 75h58q99 0 99 -64v-1123q0 -304 -262 -395 q-70 -12 -105 -12q-203 0 -308 209q-35 92 -35 198q6 13 11 53q-11 58 -11 116v41q0 43 6 64q-6 38 -6 75v35q0 99 6 227q-6 32 -6 47q0 4 6 35q-6 78 -6 116q0 24 6 105l-12 81q6 23 6 47q0 13 -6 23q0 122 122 122h70zM635 1408v-17h18q0 8 -18 17zM245 1373v-17 q12 0 12 11v6h-12zM705 1361q0 -6 -6 -17h24q8 0 17 17h-35zM245 1350v-12h6v12h-6zM664 1257v-6h6q11 6 18 6q0 11 -12 11q-12 -1 -12 -11zM269 1257v-12h6v12h-6zM711 1245v-6h17v6h-17zM653 1216v-12h6v12h-6zM717 1199v-24q10 0 17 35h-6q-11 -2 -11 -11zM222 1175 q2 -11 12 -11q9 0 17 23h-17q-12 -2 -12 -12zM659 1123v-12q1 -11 11 -11l6 11q0 12 -12 12h-5zM705 1094v-18h12v18h-12zM676 1059v-6h12v6h-12zM263 1047v-17h6v17h-6zM245 1018v-23h18v6q0 8 -18 17zM711 1012v-23h23v23l-11 -5zM635 1001v-6q6 -11 6 -18h23q12 0 12 12 t-12 12h-29zM211 937v-6h11q9 0 23 23v6h-11q-9 0 -23 -23zM682 919v-23h6q14 12 23 12v5q0 9 -18 18q-11 -2 -11 -12zM251 913v-5h24v5q0 12 -12 12q-12 -2 -12 -12zM688 867v-6h17v6h-17zM240 849v-11q30 0 35 17v6h-6q-15 -12 -29 -12zM234 768v-12h6v12h-6zM245 768 q2 -12 12 -12h6v12h-18zM711 716q0 -6 6 -6l-6 -29v-6q14 12 23 12q-7 29 -17 29h-6zM664 692v-11h6v11h-6zM228 669q2 -12 12 -12v24q-12 -2 -12 -12zM263 640h6q11 0 11 12h-5q-12 -2 -12 -12zM245 628v-23h6v23h-6zM659 628v-17h11q12 0 12 12zM693 628v-17h6v17h-6z M263 605v-6q2 -11 12 -11v17h-12zM286 599v-11h6v11h-6zM659 582v-6h11v6h-11zM240 500h23v24q-9 0 -23 -24zM676 512v-12h12q0 12 -12 12zM251 489v-12q2 -12 12 -12h6v12q0 12 -12 12h-6zM240 465v-5h11v5h-11zM699 442q12 -14 12 -23h6l6 23h-24zM257 361v-6l23 -6v12 h-23zM711 314v-11h6v11h-6zM624 308v-23q1 -12 11 -12q9 0 18 18v6q-9 0 -24 11h-5zM263 291v-6q0 -8 17 -17q35 22 35 29v6h-6q-17 -12 -46 -12zM659 291v-6h17v6h-17zM606 250q6 -10 6 -23h17q12 0 12 12v5l-12 18zM280 233h35q0 11 -11 11h-12q-12 -1 -12 -11zM339 192 v-12q11 0 11 12h-11zM362 175v-24h11v12q0 12 -11 12zM315 163l-6 -12q18 0 18 -23h6v29q-6 0 -18 6zM385 157v-12h6v12h-6z" />
<glyph unicode="V" horiz-adv-x="886" d="M76 1594l40 -6q61 6 99 6q63 0 88 -244q17 -58 122 -634q20 0 29 75q11 0 17 41q-6 23 -6 41q21 26 59 285q10 6 69 366q16 52 47 64q12 0 12 6l58 -6q29 0 87 6q70 -11 70 -52q-274 -1448 -291 -1513q-30 -29 -52 -29h-181q-71 0 -87 209q-47 204 -122 623l-111 593 q-6 0 -23 105q0 47 76 64zM116 1425v-5h12v5h-12zM145 1367l12 -17l-6 -12v-6h6q0 9 18 24v5q0 9 -18 18q-12 -2 -12 -12zM704 1350v-18h12v18h-12zM215 1321v-6h12v6h-12zM186 1280l-6 -12v-17h12q12 0 12 12q0 8 -18 17zM215 1199h6q12 0 12 11v6q-9 0 -18 -17zM669 1210 v-11q2 -12 12 -12v23h-12zM692 1193v-12h6v12h-6zM198 1187v-12h11q0 12 -11 12zM175 1169v-5h23v5h-23zM634 1135v-6h12v6h-12zM628 1111v-6h18v6h-18zM215 1094v-23h12v34q-12 -1 -12 -11zM186 1071v-24h6v24h-6zM675 1047v-6h12v6h-12zM623 995v-18h5v18h-5zM209 983v-11 h12q12 0 12 11h-24zM268 908l29 -18v41q0 12 -12 12q-17 -6 -17 -35zM256 937v-18h6v18h-6zM640 937v-6h17v6h-17zM576 879v-6q2 -12 12 -12v18h-12zM570 855v-11h12v11h-12zM314 844v-12h6v12h-6zM320 820v-11h6v11h-6zM303 774v-6q1 -12 11 -12v18h-11zM553 762v-11h6v11 h-6zM262 745v-6h23v6h-23zM524 739v-12q6 0 17 -6v18h-17zM355 692q7 0 41 -52q19 12 35 12v23l-12 -6h-6q-9 0 -23 23v41h-6q-29 -13 -29 -41zM320 727v-23q12 0 12 12q0 11 -12 11zM489 716v-24q2 -11 11 -11q0 4 6 35h-17zM303 710v-6h11v6h-11zM541 710v-6q9 -23 18 -23 h11l-6 29h-23zM326 646q35 0 35 -12q-12 -2 -12 -11l41 -24l6 -29l58 6h11v-17q-11 -15 -11 -24h-12q0 18 -11 18l-30 -6l-11 6q-38 0 -53 -35v-6l24 -6q8 23 17 23h6l12 -5q-24 -29 -24 -53q-8 0 -17 -17h23l23 17q12 -2 12 -11q-11 -6 -17 -6v-23l11 5h6l12 -5q0 5 6 5v-5 q-18 -22 -30 -59h-17l6 -11l-6 -12q0 -6 6 -17q-1 -26 -23 -53v-17h11q9 0 29 52h12l6 -23q-6 0 -6 -6l23 -17l6 23h12l5 -41q-26 -11 -29 -23v-18h12q0 24 35 24v29l12 17q-14 29 -18 29l-29 -5q-6 8 -6 34h-11l-18 -11q-12 0 -12 11v24l6 11q53 -13 53 -35h5l6 24 q0 10 -35 35q0 8 18 17h29q0 6 12 47v5q-24 0 -24 18q6 11 6 17q-12 0 -12 12l6 12q4 -6 41 -6l12 17l-41 35q-12 0 -12 12q0 43 18 46h17v-29h12l23 35h6l17 -11h6v11l-6 12l-29 -6h-46q-12 0 -12 17h-17q-22 -58 -35 -58q-21 0 -70 64q-29 -7 -29 -17zM279 646v-6 q0 -8 18 -17h6q0 10 17 29h-12zM314 605q16 -41 23 -41h24q11 0 11 12q0 9 -35 29h-23zM273 599v-6h12v6h-12zM524 570q5 -7 5 -41q14 12 41 12v29q0 12 -17 12q-19 -12 -29 -12zM448 570v-11h6v11h-6zM303 541v-6h11v6h-11zM559 518v-12h5v12h-5zM500 500v-5h12v5h-12z M529 477q2 -12 12 -12q12 0 12 12v18h-6q-8 0 -18 -18zM448 465h17v-11q0 -12 -11 -12h-18v12q2 11 12 11zM337 407l41 -29q0 24 6 47l-17 11h-12q-13 0 -18 -29zM495 425q0 -24 -6 -24q11 -18 11 -29h6v12l-6 41h-5zM320 361q0 -9 17 -18h12q0 13 6 24l-12 5h-11 q-12 -1 -12 -11zM512 361q6 0 6 -6q-11 -6 -18 -6v-6q29 0 29 -11q12 5 18 5v12q0 9 -23 23q-12 -1 -12 -11zM471 320h35v12h-23q-12 -2 -12 -12zM396 262v-29h11v29h-11zM337 221v-17h6v17h-6zM524 209q1 -11 11 -11h6v11h-17zM419 204l-6 -12h18q0 12 -12 12zM378 198v-6 q6 -11 6 -17h6v23h-12zM436 180v-5l12 -18v-6q0 -11 -17 -11v-18h29q0 18 40 18v5q-23 0 -23 35h-41z" />
<glyph unicode="W" horiz-adv-x="1578" d="M105 1594q32 0 81 -6q11 6 18 6q87 -14 87 -99q99 -543 110 -582q-5 -11 -5 -17q35 -100 35 -169v-23h11q76 305 76 355q0 43 41 174q0 85 64 332q45 29 64 29h128l34 -6q10 6 30 6q81 -13 81 -81q145 -738 145 -803q42 0 128 564q49 267 70 309l41 11h29q34 0 93 -6 l12 6q75 -17 75 -46q-279 -1484 -290 -1519q-31 -29 -53 -29h-186q-66 0 -81 209q-30 135 -47 251q-17 33 -76 401l-35 87q6 32 6 53q-27 0 -46 -175l-157 -797q-28 -29 -64 -29h-169q-57 0 -76 111q-64 388 -145 785q-93 470 -93 524l-41 110q22 64 93 64h12zM756 1437 q6 0 6 -6q35 8 35 18v29q0 11 -12 11q-13 0 -29 -52zM157 1455v-12h6v12h-6zM163 1437v-6h17v6h-17zM797 1408v-52q0 -12 -12 -12q-8 0 -17 17v12h6l11 -6v18l-40 6h-24v-12l30 -35q0 -29 -30 -29v-12q18 0 18 -11v-6q-18 -28 -64 -64v-6q9 -23 17 -23h24q3 35 17 35h6 q8 0 17 -18v-6q0 -11 -17 -11h-18l6 -29q-8 -6 -35 -6v-12q24 0 24 -11v-6l-12 -18v-6q5 0 47 12q11 -2 11 -12v-17l-41 6h-29v-12q0 -9 24 -17q76 0 99 40q11 0 11 12l12 -6h11v6h-17v12q17 0 17 6l12 -6h23v17q0 12 -17 12l-29 -6v-6h11v-11h-17v34q0 31 -17 35h-12v-11 h-6q-9 0 -23 23v12l29 -6v6q0 19 -18 40v24q24 0 24 -41h11l29 6q12 -14 12 -24h18l5 30v5l-40 6q0 -6 -6 -6l-18 24v11q0 15 53 24q0 10 -47 52q0 41 -11 41h-6q-12 -2 -12 -12zM192 1408v-6h29v6h-29zM1361 1379v-6h12v6h-12zM675 1373v-23q23 0 23 -23h18q-11 46 -41 46z M1396 1361l6 -11l-6 -12h18v23h-18zM204 1338q11 0 11 -29h6v47q-8 0 -17 -18zM1367 1327v-6h12v6h-12zM780 1303h5v-11h-5v11zM175 1274v-11h11v11h-11zM1367 1263v-6h12v6h-12zM884 1187v-6h24v6h-24zM756 1169h6q12 -1 12 -11q-6 0 -6 -6q23 -9 23 -17v-12h-11 q0 8 -24 29v17zM1391 1152v-12h5v12h-5zM239 1123v-12h5v12h-5zM1309 1117v-6q12 -14 12 -23h6q11 0 11 12v5q0 12 -11 12h-18zM192 1100v-12h6q11 0 11 12h-17zM844 1100v-12h5v12h-5zM820 1094q0 -22 -11 -35h29v17q0 9 -18 18zM855 1036q6 -11 6 -24l-12 -17h64v12 l-23 29l6 29h-17q-12 -3 -24 -29zM657 1059l-5 -12v-6h52v6q-9 0 -47 12zM908 1059q1 -12 11 -12h12v12h-23zM611 1047v-6h12v6h-12zM931 1041v-17h6v17h-6zM768 1024v-17h6q8 0 17 17q0 12 -11 12q-12 -2 -12 -12zM733 1007v-6h12v6h-12zM948 1007v-6h18v6h-18zM268 1001 v-6h11v6h-11zM681 1001v-6h23v6h-23zM727 995v-18h6v18h-6zM681 972v-18h11v6q0 12 -11 12zM873 966q0 -18 -18 -18v-11h18q11 0 11 11v18h-11zM657 925v-23q2 -12 12 -12h6v29q-6 0 -18 6zM1344 908l-6 -12v-23q13 0 18 29zM279 902v-18h18q0 9 -18 18zM1263 861v-6h17v18 h-6q-11 -2 -11 -12zM989 855l-6 -11l12 -6h12q0 8 -18 17zM605 820v-5l29 -6h12v11h-41zM1239 803v-6h12v18q-12 -2 -12 -12zM1286 797v-12h6v12h-6zM1012 780v-6h12v17q-12 -2 -12 -11zM1239 791v-11h6v11h-6zM1030 774l17 -12v6q-6 11 -6 17q-11 -1 -11 -11zM995 780v-18 h12v6q0 12 -12 12zM1274 780q2 -12 12 -12v12h-12zM361 774v-35q11 0 11 17q-5 12 -5 18h-6zM529 762v-23q10 0 24 23v12h-12q-12 -2 -12 -12zM320 756v-11h12v11h-12zM1187 739v-18q30 0 35 18l-18 12h-5q-12 -2 -12 -12zM1018 745v-24l12 6l11 -6v24h-23zM250 727v-29h6 q12 0 12 12q-12 0 -12 17h-6zM966 716l17 -12v23h-6q-11 -2 -11 -11zM1146 698l12 -6h11q15 12 24 12v6q-18 0 -18 17q-8 0 -29 -29zM361 721q0 -17 -18 -17v-29q15 0 29 -12h18q8 0 17 18v6q0 11 -11 11q-11 -6 -24 -6q-5 10 -5 29h-6zM1053 710v-12h12q11 0 11 12 q0 11 -11 11q-12 -1 -12 -11zM1239 716v-6q9 0 24 -12v23q-11 -5 -24 -5zM611 704h23q0 12 -11 12q-12 -2 -12 -12zM431 692v-11h5v11h-5zM535 687q-6 -11 -6 -24h-5l-12 6q-16 -52 -35 -52q-11 6 -17 6q0 15 17 40v6h-29q0 -17 -23 -29h-12l-12 6v-29h30q11 -2 11 -12 q-13 -10 -64 -17l-6 -29q12 -2 12 -12q-12 -2 -12 -12h6l-6 -11v-6h6v11h6l12 -5q0 5 5 5q2 -11 12 -11v41h12l23 -24q64 36 64 41l-6 58q17 0 29 18l29 -6h12q12 0 12 11v18l-24 -23q-6 0 -29 35zM617 675v-6h23v6h-23zM1146 663l-35 6v-17q10 0 29 -12l-5 -29v-18h5l12 6 q10 -6 23 -6l12 6q-12 22 -12 47q0 11 24 11v6l-6 12q-30 -12 -47 -12zM279 669q2 -12 12 -12v12h-12zM343 663l-6 -11v-12q0 -8 18 -17q6 11 6 17q-9 23 -18 23zM1233 640v-29h6q9 0 18 17v24h-12q-12 -2 -12 -12zM384 646v-6h12v6h-12zM1012 640v-12h12v-5q0 -6 -6 -6 l6 -12q0 -9 -23 -17q8 -24 17 -24q29 0 47 41h23v29h-12q0 -17 -11 -17h-6q-15 0 -18 23h-29zM547 634v-11h6q11 5 17 5v6h-23zM564 611v-18q0 -8 24 -17l5 12v5q-23 0 -23 18h-6zM1158 559q22 0 46 -18h12q0 12 -12 12q24 35 24 52h-12q-23 -23 -58 -29v-17zM303 588v-12h5 v12h-5zM1088 582q-29 -24 -29 -29q6 -12 6 -18h-12q0 18 -12 18q0 -24 -17 -41v-29h12q17 6 40 41q-5 0 -5 5l11 6q21 -35 29 -35h12q0 16 17 35v18l-5 11q11 0 11 12q-33 6 -58 6zM337 576v-35h18v18q0 8 -18 17zM495 541h-18l-17 -46h-12q-18 11 -41 17l-11 -41 q11 0 17 -35l-12 -5q0 9 -23 23h-6v-12q18 -19 18 -29h11q18 21 18 35l17 12h12q12 -2 12 -12v-12q-35 -18 -35 -40q-35 -24 -47 -24q4 -35 23 -35l-5 -29v-5q14 11 23 11l-6 12l18 29l-6 12q8 23 17 23l23 -18l18 24q-15 0 -18 23q12 26 24 29q11 -6 17 -6v35q-35 0 -35 12 q6 0 35 23q8 0 18 -35q11 0 11 -23h12v35h12v6h-18v5q0 6 6 6q0 6 -6 6l6 29v6l-6 12q-29 -18 -46 -18zM355 529v-11h12q0 11 -12 11zM1210 518h12q11 0 11 11h-11q-12 -1 -12 -11zM1251 524v-6h12v6h-12zM1233 512v-12h6v12h-6zM1187 495v-6h12q8 0 17 17h-17 q-12 -2 -12 -11zM1140 500l-11 -29q-34 4 -53 18h-11v-6l6 -29l-12 -6q0 12 -12 12v-24q64 -13 64 -35q-13 -40 -40 -40h-12v-12l6 -29h6q0 17 11 17h6q9 0 17 -23l12 6h12l29 -23q11 0 11 11v18q-34 0 -34 11v35q1 12 11 12h6q7 0 23 -47h24v6q0 23 -35 58q14 12 23 12 l-6 12q0 16 29 17v18q-41 0 -41 23l-11 -6h-6q0 23 -12 23zM1204 483v-12h6v12h-6zM1239 483v-23h6v23h-6zM1012 431v-18q0 -14 41 -17l6 11q-12 3 -23 29q-11 -5 -24 -5zM489 425v-18l11 -17v-12q0 -10 -52 -46q0 -18 -17 -18v-29q-33 -29 -64 -29v-6q32 -6 46 -6l29 18h12 l-6 -41l29 -12v47q58 124 58 140v29q-11 -6 -17 -6zM1233 343v-11h18v11h-18zM1187 297v-6h29v6h-29zM1082 291v-29h6v29h-6zM1117 291v-23h23v11q0 12 -11 12h-12zM1024 268v-6h12v6h-12zM1094 262v-12h6v12h-6zM1053 256v-6h12v6h-12zM1105 244v-11l12 -18l-29 -64 q12 -2 12 -11l-6 -12h29q28 41 41 41q0 11 -12 11h-6l-17 -11l-6 11l23 70h-6zM378 215q0 -8 18 -17v17h-18zM436 204q0 -15 -5 -47q5 -11 5 -17h35v17l-17 23v12l6 12h-24zM1024 204v-12h6v12h-6z" />
<glyph unicode="X" horiz-adv-x="808" d="M149 1594h93q85 0 99 -134q51 -197 58 -197h6v29q0 19 46 122q14 174 82 174q30 6 58 6q157 0 157 -46v-12q-209 -717 -209 -733l209 -745v-6q-19 -52 -64 -52h-151q-65 0 -93 227q-40 75 -47 105h-6q-71 -326 -98 -326l-41 -6h-146q-52 8 -52 52v6q128 428 204 733v29 q-35 133 -204 699v11q0 64 99 64zM277 1391v-6h17v6h-17zM562 1391v-12h12v12h-12zM300 1379v-18h6v18h-6zM190 1367v-6q1 -11 11 -11v17h-11zM242 1356q0 -9 17 -18v6q0 12 -11 12h-6zM597 1350v-12h6v12h-6zM515 1321v-12h18l6 29h-6q-8 0 -18 -17zM568 1327v-6h11v6h-11z M219 1292l17 -12q9 0 18 17q0 12 -12 12h-6q-8 0 -17 -17zM312 1297v-23q11 0 11 12q0 11 -11 11zM277 1280v-17h6v17h-6zM387 1251v-6h24v6h-24zM498 1239l12 -6h5q12 0 12 12l-12 6h-5q-12 -2 -12 -12zM271 1222v-6q2 -12 12 -12q11 19 11 29h-11q-12 -1 -12 -11z M417 1222h11v11q-11 -1 -11 -11zM341 1199q0 5 -6 5q-4 -27 -29 -46v-18h17q8 0 18 35q19 0 52 35l-17 12h-12zM475 1216q-19 -35 -53 -35l18 -23q0 -12 -12 -12q-23 12 -23 29q6 12 6 18h-12q-21 -29 -35 -29v-18h6l29 6v-12l-46 -35l-41 6v-6q8 -34 29 -34q11 5 17 5 q0 -21 64 -35v-11q-15 -38 -29 -41h-6l-17 12v-24q2 -11 12 -11q0 11 46 17q12 24 29 24v58q-17 21 -17 40l11 6l-5 12v12h5l12 -6v23q-17 0 -17 12v5q1 12 11 12h6l23 -17q0 17 6 40zM265 1199v-6h12v6h-12zM498 1158v-6h17v6h-17zM498 1140l-6 -11l12 -6h6v6q0 11 -12 11z M294 1129v-6h12v6h-12zM504 1117v-17h6v17h-6zM405 1105h12q11 -1 11 -11v-6h-23v17zM277 1053v-6h12q11 0 11 12v12q-23 -9 -23 -18zM358 1047v-6h12v6h-12zM504 1012v-11h11v11h-11zM329 972l12 -6v17q-12 -2 -12 -11zM428 977q0 -29 -11 -29q8 -23 17 -23h29l-6 29v23 h-29zM329 919q16 -28 24 -29h5l29 6q0 -6 6 -6q-2 -19 -35 -41h6l35 6q2 -11 12 -11h6l-6 29q11 0 11 11v29l-17 -11h-6q-16 0 -17 29q-12 -12 -53 -12zM428 832q2 -12 12 -12q11 0 11 12h-23zM376 820l-6 -11q23 -18 23 -29h18v5q0 9 -35 35zM376 768q0 -35 58 -35h17v12 q-6 0 -17 6l-29 -6q-6 9 -6 29q-10 -6 -23 -6zM347 692v-11q11 0 11 11h-11zM446 687v-12h5v12h-5zM376 646l6 -29l11 6l12 -6v35q0 11 -12 11h-6q-11 0 -11 -17zM446 628v-5q5 -12 5 -18h12q-9 23 -17 23zM347 623v-12h6v12h-6zM364 599q-23 -20 -29 -70q-6 0 -6 -5v-6 q10 0 35 -58q10 0 47 -47q6 0 17 -6l-17 -29l11 -6h41v6q-29 18 -29 29l12 24q-24 0 -24 17q6 11 6 17q-46 18 -46 35l11 6h29q23 -41 29 -41q35 66 35 76l-17 12h-6q0 -24 -12 -24h-5q0 41 -24 41q-48 29 -58 29zM428 588v-6h12v6h-12zM376 582l11 -18v-5h-23v11 q2 12 12 12zM353 518h17v-12h-17v12zM481 471q5 -11 5 -17q11 6 24 6v11q0 12 -12 12h-6q-11 -2 -11 -12zM277 436q0 -8 17 -17q20 17 35 17v41h-6q-46 -36 -46 -41zM521 465v-11h18q0 11 -12 11h-6zM457 454l-6 -12v-11l6 -12l12 6q11 -6 17 -6q-5 25 -29 35zM329 419v-12 l6 -29q-17 -6 -17 -35v-11h23q0 40 29 81q0 8 -17 18h-12q-12 -2 -12 -12zM481 372l-6 -11q11 -2 11 -12q23 6 41 6v12q-26 5 -46 5zM533 378v-6h17v6h-17zM265 372q2 -11 12 -11q12 0 12 11h-24zM271 355v-12h12v12h-12zM504 308l-6 -11l12 -6h17q0 9 -23 17zM190 297v-6 h11v6h-11zM527 285v-12h6v12h-6zM259 244v-11h12q0 11 -12 11zM172 215v-6h18v6h-18zM579 209q12 -14 12 -29h6q12 0 12 12l-24 17h-6zM556 186v-11h6v11h-6z" />
<glyph unicode="Y" horiz-adv-x="861" d="M127 1594h12q169 0 169 -52q99 -340 110 -413l12 -6l6 12q-12 0 -12 17q32 28 93 273q0 169 146 169q157 0 157 -46v-12q-262 -842 -262 -884v-588q-10 -64 -64 -64h-140q-40 0 -58 52q6 122 6 198v87q0 46 -6 82q6 28 6 76v29q0 159 -35 238q-35 136 -180 599 q-35 103 -47 175q0 58 87 58zM185 1402v-11h24v5zM220 1396v-23q12 0 12 12q0 11 -12 11zM185 1385v-12h6v12h-6zM232 1356v-18h12v6q0 12 -12 12zM628 1321v-6h11v6h-11zM645 1274v-6h12v6h-12zM267 1263v-6q2 -12 12 -12v18h-12zM587 1228v-6h29v11zM546 1228v-18h6v18h-6 zM529 1210v-11h6v11h-6zM325 1146h12v12q-12 -2 -12 -12zM482 1152v-17q12 0 12 11v6h-12zM529 1152v-23h11v11q0 12 -11 12zM447 1129v-12h6v12h-6zM465 1129v-12h11q12 0 12 12h-23zM395 1076l-12 6l-11 -6q-12 6 -18 6v-6l29 -40v-12q-40 -56 -40 -76l11 -5h6q0 25 23 34 q2 -11 12 -11q22 17 35 17v-6q0 -11 -23 -11l5 -12q-19 0 -35 -35q2 -11 12 -11q7 0 29 40q-6 0 -6 6h6q32 -23 53 -23v-6l-6 -12l29 -5l6 11v12q-53 10 -53 35q9 23 18 23h11q0 -6 6 -17q-11 -6 -17 -6v-18q40 5 40 41l-11 18v17q16 35 41 35v29q0 12 -12 12l-6 -12 q6 -10 6 -23h-6q-30 0 -52 17h-6v-17h23v-18l-29 -23q8 0 18 -17l-6 -12q-11 0 -47 12l6 23q0 9 -12 52q12 6 18 6v12q-12 0 -12 11q-11 0 -23 -35zM319 1100v-12h6v12h-6zM313 1082v-11h12v11h-12zM337 1082q0 -23 -18 -23v-6l29 -6l6 12l-11 6l5 11v6h-11zM313 1024v-17 l12 5l12 -5v17h-24zM546 1012v-11q2 -12 12 -12h11v23h-23zM430 913v-11h17v11h-17zM511 902v-18h18v6q0 12 -12 12h-6zM447 896v-6h12v6h-12zM401 890q0 -17 -18 -17v-12q6 0 18 -6l23 29l-12 6h-11zM447 879q0 -15 -11 -30q1 -11 11 -11q18 23 29 23v18h-5q-12 -6 -18 -6 q0 6 -6 6zM412 849v-11h6v11h-6zM407 826q1 -11 11 -11h12v11h-23zM441 826v-6h12v6h-12zM389 809q0 -12 -17 -12v-6q10 0 29 -11v17q0 12 -12 12zM407 809v-6h11v6h-11zM430 803v-23q0 -9 17 -18q12 0 12 12v6q0 9 -23 23h-6zM383 751v-12h6v12h-6zM459 739v-12l-29 6h-6 v-35l12 6l11 -6v12h6l18 -12v12l-6 29h-6zM401 704v-6h11v6h-11zM401 692l-6 -11l12 -6h5v6q0 11 -11 11zM407 640v-6q1 -11 11 -11v17h-11zM418 593v-5l6 -29q12 0 12 11v6q0 8 -18 17zM436 489v-6h11v6h-11zM430 436v-17h6v17h-6zM430 262v-12h11v12h-11zM412 256 q0 -3 -5 -23h11q0 13 6 23h-12zM453 192v-12h12q11 0 11 12v23q-9 0 -23 -23z" />
<glyph unicode="Z" horiz-adv-x="823" d="M192 1600q54 -7 70 -12q49 6 81 6h53q24 0 64 -6q5 0 5 6l41 -6h99l35 6q11 -6 17 -6q58 6 88 6q58 -16 58 -35v-139q0 -13 6 -24q-408 -1112 -408 -1123h6q22 -9 122 -17q3 0 24 6q65 -6 122 -6l70 6q58 -14 58 -53v-151q-12 -58 -58 -58h-588q-64 0 -64 99 q15 158 35 169q122 338 122 378q19 0 87 215q88 204 157 425v46h-337q-58 0 -58 111l6 23q-12 36 -12 47q28 75 81 75q0 4 18 12zM372 1489v-11h6v11h-6zM285 1472l-6 -12v-11h6q12 0 12 11q0 12 -12 12zM337 1460l-5 -23l11 -6v29h-6zM553 1443v-18h11q0 14 6 24l12 -6h6 v17q-35 -3 -35 -17zM430 1449v-6q2 -12 12 -12q23 9 23 18q-11 6 -17 6q-11 -6 -18 -6zM407 1437v-6q2 -11 12 -11v5q0 12 -12 12zM646 1408v-6h11v6h-11zM564 1396v-5q2 -47 12 -47q19 12 35 12q0 -6 6 -6q0 8 17 17h12l11 -6l24 24v6h-12l-58 5q0 -11 -12 -11l-11 6 q0 -6 -6 -6q0 11 -12 11h-6zM605 1327v-12h6v12h-6zM640 1303v-11h6v11h-6zM646 1251q0 -8 17 -18l6 12v6h-23zM576 1233v-5h17v5h-17zM599 1210v-11h6v11h-6zM628 1187v-18h6v18h-6zM588 1135v-12h5v12h-5zM529 1105l12 -5v17q-12 -2 -12 -12zM506 1018v-23h6v23h-6z M518 902h11v11q-11 -1 -11 -11zM436 861v-17h18v17h-18zM454 791v-11q2 -12 11 -12l12 6l-6 35q-8 0 -17 -18zM401 739v-12h6v12h-6zM384 657q0 -8 23 -17v17h-23zM343 506v-6h6q12 0 12 12v6h-6q-12 -2 -12 -12zM320 483v-6h23v6h-23zM337 471v-11h6v11h-6zM302 442v-6h24 v6h-24zM326 413v-12h17q-6 11 -6 24q-11 -2 -11 -12zM285 384q2 -12 12 -12q11 0 11 12h-23zM314 332v-6h12v17q-12 -2 -12 -11zM302 303v-18h18v29h-6q-12 -2 -12 -11zM256 273v-34h17q12 43 12 46h-17q-12 -2 -12 -12zM279 239q12 -15 12 -24h35l29 -6v6l-18 24l-23 -6z M227 215v-6q6 -10 6 -23h23q9 0 23 23zM425 204q0 -13 -6 -24h23q12 0 12 12zM297 186v-17q1 -12 11 -12q24 9 24 18v5q0 12 -18 12q-11 -6 -17 -6zM384 169v-12h6v12h-6zM349 163l-6 -12v-29h29v29q-9 0 -23 12zM407 163v-12h6v12h-6zM558 163v-12q12 0 12 12h-12zM256 157 v-12h17q0 12 -11 12h-6zM576 151v-17h6v17h-6zM291 145l6 -29h11v29h-17zM652 128v-6q1 -11 11 -11h6v29h-6q-11 -2 -11 -12zM506 128v-6l29 -6v18zM582 111v-12h11v12h-11zM535 87v-11h6v11h-6z" />
<glyph unicode="[" horiz-adv-x="569" d="M502 1743v-104q-7 -76 -58 -76h-81q0 -14 -12 -52q0 -58 6 -174l-12 -105q6 -11 6 -17l-6 -12q6 -49 6 -81v-198q0 -74 6 -162l-12 -93q6 -13 12 -87q0 -26 -6 -76q6 -137 6 -186q0 -38 -6 -220l18 -35q133 0 133 -70q0 -29 -6 -87l6 -23q-6 -73 -41 -87h-11 q-112 0 -198 -6q-60 6 -69 6q-93 0 -93 69v1905q0 44 75 58h227l29 6q81 -21 81 -93zM264 1731v-11q0 -12 12 -12v23h-12zM264 1685v-12q6 0 17 -5v17h-17zM258 1668h-11l-12 -6l12 -35h5q0 29 18 29q0 10 -12 12zM281 1633v-6q0 -12 12 -12v18h-12zM223 1633q-11 0 -11 -12 v-6q0 -11 11 -11h24q-16 28 -24 29zM281 1575q0 -12 12 -12h12l-12 23q-12 0 -12 -11zM218 1540h-6v-18h23q-9 18 -17 18zM194 1540v-6h12v6h-12zM281 1528v-17h6v17h-6zM177 1517v-6h12v6h-12zM189 1505q0 -12 11 -12h6v6l-6 12zM189 1464v-11h5v11h-5zM247 1459 q0 -12 11 -12h12v12h-23zM229 1418h12v12q-12 0 -12 -12zM165 1400v-11q10 0 12 11h-12zM177 1383v-12h12v12h-12zM194 1377q0 -11 12 -11v11h-12zM212 1360v-12h6v12h-6zM200 1296q-11 0 -11 -12v-17h5q9 0 18 23v6h-12zM165 1040v-5h12v5h-12zM200 1023q-11 0 -11 -12v-11 h5q10 0 12 11v12h-6zM212 994v-6h11v6h-11zM223 948v-12h12v12h-12zM206 826v-6q9 -18 17 -18h6v6q0 9 -23 18zM212 739q-12 0 -12 -12v-6h6q10 0 12 12v6h-6zM235 663v-17h12v5q0 10 -12 12zM247 628v-6h11v6h-11zM218 541q-12 0 -12 -12v-17h17v29h-5zM229 402 q-11 0 -17 -41v-6q15 0 23 41v6h-6zM177 297v-6h12v6h-12zM229 291v-11h6v11h-6zM223 251q-11 0 -11 -29q0 -18 11 -18h6q0 29 18 29q0 9 -24 18zM252 193h-23q1 -8 29 -24h6v12q0 10 -12 12zM177 193v-6h12v6h-12zM229 146v-6h12v6h-12zM276 117v-11h5v11h-5zM270 82h-6v-5 q0 -12 12 -12h5v6q0 10 -11 11zM165 77v-12h18v12h-18zM194 53v-11h12q0 9 -12 11zM281 36l-29 -6v-6q0 -8 24 -17q23 14 23 23q-6 0 -18 6zM212 13v-6q17 0 17 -12q10 0 12 12v11zM316 -22v-18h6v18h-6zM200 -34v-6q0 -11 12 -11v17h-12zM252 -45l-11 -6v-6q29 -9 29 -35 h11v23q-7 0 -29 24zM287 -51q0 -12 12 -12h6v12h-18zM334 -69v-29h11v29h-11zM293 -69v-5h12v5h-12zM235 -103v-6h12v6h-12z" />
<glyph unicode="\" horiz-adv-x="640" d="M250 1577q64 -195 64 -291q64 -178 128 -524q23 -33 47 -180q40 -130 70 -297q58 -194 58 -215q-14 -70 -35 -70h-175q-22 0 -46 23q-29 80 -361 1507q0 64 93 64h29q111 0 128 -17zM122 1385v-12h6v12h-6zM209 1169v-11h12v11h-12zM268 1123v-18h5v18h-5zM227 1041v-17 h12v17h-12zM279 1024v-12h6v12h-6zM221 983v-17h12v17h-12zM227 954l6 -11q10 0 11 11h-17zM244 879v-12h6v12h-6zM233 861v-6l6 -11q9 0 11 11v6h-17zM297 849v-29q10 0 11 12v6q0 10 -11 11zM337 704l-23 -17q8 -35 18 -35q0 15 17 35v5q0 10 -12 12zM343 663v-11 q10 0 12 11h-12zM320 541v-29h29v12q-10 0 -29 17zM384 425v-6h12v6h-12zM337 407h12v12q-12 0 -12 -12zM407 378v-11h6v11h-6zM390 361v-6h17v6h-17zM436 343v-23h29q-11 14 -11 23h-18zM390 343v-11h11q0 9 -11 11zM401 297v-12q10 0 12 12h-12zM401 239v-6h12v6h-12z M431 221v-6h11v6h-11zM448 198v-6h17v6h-17z" />
<glyph unicode="]" horiz-adv-x="586" d="M161 1836l29 -6h227q75 -14 75 -58v-1905q0 -69 -93 -69q-9 0 -69 -6q-86 6 -198 6h-11q-35 14 -41 87l6 23q-6 58 -6 87q0 70 133 70l18 35q-6 182 -6 220q0 49 6 186q-6 50 -6 76q6 74 12 87l-12 93q6 88 6 162v198q0 32 6 81l-6 12q0 6 6 17l-12 105q6 116 6 174 q-12 38 -12 52h-81q-51 0 -58 76v104q0 72 81 93zM306 1731v-23q12 0 12 12v11h-12zM301 1685v-17q11 5 17 5v12h-17zM312 1656q18 0 18 -29h5l12 35l-12 6h-11q-12 -2 -12 -12zM289 1633v-18q12 0 12 12v6h-12zM335 1604h24q11 0 11 11v6q0 12 -11 12q-8 -1 -24 -29z M289 1586l-12 -23h12q12 0 12 12q0 11 -12 11zM347 1522h23v18h-6q-8 0 -17 -18zM376 1540v-6h12v6h-12zM295 1528v-17h6v17h-6zM393 1517v-6h12v6h-12zM382 1511l-6 -12v-6h6q11 0 11 12zM388 1464v-11h5v11h-5zM312 1459v-12h12q11 0 11 12h-23zM341 1430v-12h12 q0 12 -12 12zM405 1400q2 -11 12 -11v11h-12zM393 1383v-12h12v12h-12zM376 1377v-11q12 0 12 11h-12zM364 1360v-12h6v12h-6zM370 1296v-6q9 -23 18 -23h5v17q0 12 -11 12h-12zM405 1040v-5h12v5h-12zM376 1023v-12q2 -11 12 -11h5v11q0 12 -11 12h-6zM359 994v-6h11v6h-11 zM347 948v-12h12v12h-12zM353 808v-6h6q8 0 17 18v6q-23 -9 -23 -18zM364 739v-6q2 -12 12 -12h6v6q0 12 -12 12h-6zM335 651v-5h12v17q-12 -2 -12 -12zM324 628v-6h11v6h-11zM359 541v-29h17v17q0 12 -12 12h-5zM347 402v-6q8 -41 23 -41v6q-6 41 -17 41h-6zM393 297v-6h12 v6h-12zM347 291v-11h6v11h-6zM335 233q18 0 18 -29h6q11 0 11 18q0 29 -11 29q-24 -9 -24 -18zM318 181v-12h6q28 16 29 24h-23q-12 -2 -12 -12zM393 193v-6h12v6h-12zM341 146v-6h12v6h-12zM301 117v-11h5v11h-5zM301 71v-6h5q12 0 12 12v5h-6q-11 -1 -11 -11zM399 77v-12 h18v12h-18zM376 42h12v11q-12 -2 -12 -11zM283 30q0 -9 23 -23q24 9 24 17v6l-29 6q-12 -6 -18 -6zM341 18v-11q2 -12 12 -12q0 12 17 12v6zM260 -22v-18h6v18h-6zM370 -34v-17q12 0 12 11v6h-12zM301 -69v-23h11q0 26 29 35v6l-11 6q-22 -24 -29 -24zM277 -51v-12h6 q12 0 12 12h-18zM237 -69v-29h11v29h-11zM277 -69v-5h12v5h-12zM335 -103v-6h12v6h-12z" />
<glyph unicode="^" horiz-adv-x="740" d="M510 872q122 -25 122 -81v-139q0 -33 -40 -58h-29q-76 29 -93 29h-6q-193 -41 -238 -41q-151 0 -151 105q0 75 -6 75q12 105 70 105q95 -41 133 -41l12 6q10 -6 23 -6q0 31 203 46zM452 756q2 -11 12 -11l6 11h-18zM330 750v-11q2 -12 12 -12h17v6q0 13 -29 17zM261 733 v-12h11q0 12 -11 12zM278 733v-12h6v12h-6z" />
<glyph unicode="_" horiz-adv-x="1252" d="M81 -85q7 81 35 81h1003q40 -21 40 -58v-162q-10 -23 -64 -41q-15 0 -156 6q-13 0 -23 -6q-32 6 -52 6h-12q-146 0 -359 -6l-29 6q-41 -6 -70 -6q-120 0 -284 6q-11 0 29 -6q-58 0 -58 180zM101 -91h29v6l-29 6v-12zM148 -132l11 6q-6 10 -6 23h-17q12 -14 12 -29z M159 -149v12h-11q1 -12 11 -12zM275 -114h12v6h-12v-6zM298 -132l12 -5h6v17h-6q-12 0 -12 -12zM351 -126h17q0 12 -12 12h-5v-12zM449 -172h6v11h-6v-11zM466 -114h6v11h-6v-11zM377 -143h5v17h-5v-17zM510 -143l23 -6l6 12h-29v-6zM527 -166h6v11h-6v-11zM556 -137v17h-17 q0 -8 17 -17zM562 -91h6q11 2 11 12h-17v-12zM678 -172v23h-17q8 -23 17 -23zM661 -120h5v12h-5v-12zM724 -149h12v6h-12v-6zM840 -172h12v11q-12 0 -12 -11zM974 -149h5v12h-5v-12zM1003 -108h5v11h-5v-11zM1008 -149h6v12h-6v-12zM1008 -91h18v6h-18v-6z" />
<glyph unicode="`" horiz-adv-x="501" d="M216 1889q0 -103 58 -332q-22 -44 -41 -52h-93q-13 0 -23 6q-30 13 -180 419q0 44 64 58q45 0 81 -6q32 6 47 6q57 0 87 -99z" />
<glyph unicode="a" d="M426 1373q274 0 366 -221q24 -68 24 -151v-925q0 -76 -99 -76h-82q-36 0 -81 17q-55 -11 -87 -11h-24q-184 0 -296 192q-35 94 -35 116v12q0 24 5 46l-17 93q12 56 12 88l-6 29q0 202 221 320q70 23 76 23q51 -6 64 -6q87 0 87 53v46q-24 93 -93 93h-18q-64 0 -81 -116 q-23 -29 -53 -29h-157q-46 24 -46 58q0 148 163 291q120 58 134 58h23zM519 1245l-6 -12v-5q2 -12 12 -12h6v17q0 12 -12 12zM589 1239v-17h6v17h-6zM583 1216v-6h12v6h-12zM292 1199v-6h12v6h-12zM467 1193v-6h11v6h-11zM536 1181v-12h18q11 0 11 12v6zM344 1181v-17h6 q9 0 18 17h-24zM467 1181v-12h11q0 12 -11 12zM624 1152v-6h17v6h-17zM699 1105v-11h6v11h-6zM641 1100v-6h12v6h-12zM659 1047q0 -10 -18 -29l12 -6h6q11 0 11 18q-6 11 -6 17h-5zM693 983v-17h6v17h-6zM676 948l-6 -11v-18q9 0 18 18q0 11 -12 11zM624 937v-18h5v18h-5z M565 873v-12q0 -10 47 -29v41h-47zM670 849v-5l29 5v18h-6q-23 -9 -23 -18zM542 820v-5h18v5h-18zM688 820v-11h5v11h-5zM501 797v-6l30 -6v24h-18q-12 -2 -12 -12zM618 803q0 -15 -12 -29v-18q0 -8 18 -17q4 0 17 17q-17 29 -17 47h-6zM356 780v-12h12v12h-12zM513 774v-12 h35q0 12 -12 12h-23zM647 774v-18q14 12 23 12v6h-23zM426 768v-23h6v23h-6zM339 733l-6 -29q2 -12 11 -12v41h-5zM612 704v-6h6q64 12 64 23v12h-12q-35 0 -52 -29h-6zM298 727v-11h6v11h-6zM577 721v-5q2 -12 12 -12h11v17h-23zM298 692v-11q11 0 11 11h-11zM624 692v-17 h5v17h-5zM682 663l11 -6q0 12 41 18v12h-11q-32 0 -41 -24zM373 599v-250q20 -76 70 -76h35q76 0 76 105q-6 23 -6 41l6 35l-6 23q6 55 6 105v6q-28 81 -87 81h-12q-82 -10 -82 -70zM676 611v-6h23v6h-23zM635 564v-17h6v17h-6zM205 518v-12h11v12h-11zM688 518l-12 -23h23 v11q0 12 -11 12zM193 442v-17h6v17h-6zM263 442v-6h12v6h-12zM280 390v-6h18v6h-18zM676 372v-5h47v5h-47zM676 355q2 -12 12 -12v12h-12zM676 337v-5h12v5h-12zM624 320v-6h11v6h-11zM595 279v-17h5v17h-5zM280 256l-5 -12h17q0 12 -12 12zM664 256v-12h6v12h-6zM699 244 v-17q12 0 12 12v17q-12 -2 -12 -12zM333 239l-6 -35h23q-6 35 -17 35zM600 227v-6h12v6h-12zM659 227v-23h11v23h-11zM577 209v-23q2 -11 12 -11l29 5q-18 19 -18 29h-23zM542 192v-17h18q11 0 11 11q-11 0 -11 12q-12 -6 -18 -6zM432 192v-6q1 -11 11 -11h6v17h-17z M664 192v-23h12v11q0 12 -12 12zM368 186v-23h17v12q0 11 -12 11h-5zM711 186v-6h12v6h-12zM624 180v-5h11v5h-11zM676 140v-6h12v6h-12zM403 128v-12h5v12h-5zM536 122v-23h6q12 0 12 12q0 11 -12 11h-6z" />
<glyph unicode="b" d="M201 1600h23q139 0 139 -64v-157q44 -12 53 -12q51 6 64 6q326 -61 326 -361v-634q0 -277 -285 -366q-40 -6 -64 -6h-6q-41 0 -111 11q-28 -17 -75 -17h-82q-87 0 -87 64q0 41 6 169l-6 58l6 58q0 29 -6 70q6 91 6 134q0 38 -6 116q6 40 6 64q0 7 -6 58q0 15 6 47 q-6 71 -6 139t11 94q-11 51 -11 139v146q0 14 11 52l-17 76q0 116 111 116zM247 1425v-5h12v17q-12 -2 -12 -12zM265 1408v-12h5v12h-5zM189 1391v-6h12q11 0 11 11v6h-11q-12 -2 -12 -11zM241 1350v-23q10 5 24 5v18h-24zM253 1315v-18h6q11 6 17 6l6 -11l12 5l17 -11 q12 0 12 17v18h6v17h-12q-16 -11 -64 -23zM230 1315v-6h11v6h-11zM235 1251q47 -32 47 -58q-11 -6 -17 -6v-6q10 0 29 -17l40 35v23h-5l-12 -6q-47 34 -47 47h-23q-12 -2 -12 -12zM317 1245l12 -6l5 12v6h-5q-12 -2 -12 -12zM439 1257v-6h12v6h-12zM503 1245v-6 q2 -11 12 -11h6v5q0 12 -12 12h-6zM340 1239v-23h6q8 0 17 17l-11 6h-12zM363 1187l-5 -12l23 -17v6q-9 23 -18 23zM596 1187l-6 -23q12 0 12 -18q11 0 23 35l-11 6h-18zM265 1152v-23h5q12 0 12 11v12h-17zM288 1111q6 -11 6 -17h17v17q0 12 -12 12q-11 -2 -11 -12z M643 1117q0 -9 -12 -23h23l12 6q-6 11 -6 17h-17zM363 1041v-692q23 -81 76 -81h41q70 29 70 116q0 12 -6 64q0 6 6 6l-6 41v11q0 45 6 82q0 13 -6 23q6 64 6 110v88l5 35q-5 9 -5 29v29q0 19 5 29q0 180 -98 180h-24q-70 -14 -70 -70zM230 1100q8 -24 17 -24h23q9 0 18 18z M247 1036v-12h12q0 12 -12 12zM247 1018v-23h6v23h-6zM643 1007l-6 -12h17q0 12 -11 12zM230 960v-6h11v6h-11zM247 960v-17h23q0 8 -17 17h-6zM649 913v-5q5 -12 5 -18h6v23h-11zM724 902v-18q12 0 12 12v6h-12zM724 879v-12h6v12h-6zM224 867v-23q23 4 23 11q-6 12 -6 18 q-11 -6 -17 -6zM224 815v-18h6q11 0 11 12l-11 6h-6zM678 780v-6q14 0 29 -12q11 19 11 29h-11q-15 -11 -29 -11zM660 739l-6 -23h6q9 0 18 17v6h-18zM241 721h18v12h-6q-12 -2 -12 -12zM206 692v-11h18q0 11 -12 11h-6zM253 675v-18h6v18h-6zM212 547v-12h12v12h-12z M643 529v-11h6v11h-6zM241 500v-5h18v5h-18zM643 425l11 -6h6v23q-8 0 -17 -17zM643 390v-12h17v12h-17zM265 378v-6h11v6h-11zM282 372v-11h6v11h-6zM224 367l-6 -12q2 -12 12 -12l5 12q0 12 -11 12zM701 343v-6h17v6h-17zM241 332v-18h6v18h-6zM631 285v-12h6v12h-6z M666 285v-17h17v5q0 12 -11 12h-6zM276 279q0 -19 -6 -29h6q23 9 23 18v11h-23zM253 250v-11h6v11h-6zM555 233q6 -35 18 -35h17q12 0 12 11v6q-35 0 -35 18h-12zM596 233v-6h12v6h-12zM614 233v-6h11v6h-11zM270 192h12q9 0 29 35h-12q-29 -12 -29 -35zM212 221v-6h12v6 h-12zM224 180v-5h29v34q-8 0 -29 -29zM451 186q11 -6 17 -6q33 18 47 18v11q-64 -8 -64 -23zM393 198q1 -12 11 -12h18v12h-29zM381 192v-12h6v12h-6zM323 175v-18q11 0 11 12zM474 151v-6q2 -11 12 -11l5 11l-11 6h-6zM259 128h17v12h-6q-11 -2 -11 -12zM451 128v-12 q11 0 11 12h-11z" />
<glyph unicode="c" horiz-adv-x="901" d="M474 1373q123 0 233 -105q99 -95 99 -250v-139q-12 -59 -58 -59h-169q-23 0 -35 76v151q-30 64 -93 64h-18q-69 -17 -69 -70v-680q17 -93 75 -93h53q58 30 58 151v93q0 44 58 52h41q27 0 58 -5q22 5 52 5h6q41 -25 41 -58v-128q0 -268 -268 -361q-44 -11 -81 -11h-6 q-234 0 -326 227q-17 39 -29 163v11q0 140 6 262l-6 93q6 104 6 169q0 14 -6 87q0 142 128 274q108 81 250 81zM410 1257v-6h12v6h-12zM515 1222q6 -11 6 -18h6q14 12 23 12q-12 19 -12 29q-9 0 -23 -23zM358 1204v-5h11v5h-11zM305 1199v-18h12v18h-12zM399 1193v-6 q1 -12 11 -12h6v18h-17zM579 1169l-6 -11l23 -6l6 12zM224 1111v-17h6v17h-6zM625 1105v-11h12q12 0 12 11h-24zM288 1100q0 -7 -6 -18l12 -6v24h-6zM236 1076v-11h11v11h-11zM294 1041v-5q0 -9 17 -18v12q0 11 -11 11h-6zM678 1007v-6h11v6h-11zM637 972v-12h6v12h-6z M201 867v-12h6v12h-6zM212 844v-6q2 -12 12 -12h6v6q0 12 -12 12h-6zM230 820v-5h17v5h-17zM253 745v-18h12v6q0 12 -12 12zM189 739v-6h12v6h-12zM207 727q1 -11 11 -11h6v11h-17zM259 657q0 -14 -12 -29v-5h12q0 15 17 34h-17zM253 506l-6 -29h12v29h-6zM236 442v-11h5v11 h-5zM660 378v-11h6v11h-6zM236 337v-11h5v11h-5zM625 303v-12h18q0 12 -12 12h-6zM276 291l-5 -12l11 -6l6 12zM649 279v-29h11v18q0 11 -11 11zM573 250q0 -8 18 -17v29h-6q-12 -2 -12 -12zM294 239v-12h17v12h-17zM527 209v-5h11v5h-11zM602 198h18v11h-6q-12 -1 -12 -11z M416 204v-18h6v18h-6zM416 180q2 -11 12 -11v11h-12zM561 175v-6h30v11zM358 175v-18h6v18h-6zM433 169v-6h12v6h-12zM451 169v-18q12 0 12 12zM509 157v-6q6 -35 18 -35h11v12q-15 29 -23 29h-6zM375 145v-11h18q0 11 -12 11h-6z" />
<glyph unicode="d" d="M625 1600h76q78 0 99 -41v-1501q0 -58 -93 -58h-99q-28 0 -58 17q-70 -11 -111 -11h-6q-155 0 -267 139q-70 105 -70 256q0 15 6 47q-6 125 -6 186q0 37 6 192q-6 21 -6 23q6 32 6 53q0 32 -6 81q0 279 239 373q56 17 151 17h35q23 10 23 41v23q0 32 -6 82q22 81 87 81z M660 1379l-40 -23v-29q6 0 17 -6q10 6 23 6q0 -6 6 -6q0 8 12 52q-6 0 -18 6zM550 1327h11v11q-11 -2 -11 -11zM631 1315v-6h12v6h-12zM585 1286v-6q0 -8 17 -17q12 0 18 34h-12q-14 -11 -23 -11zM672 1297q0 -13 -6 -23l12 -6q6 24 23 24v5h-29zM532 1280v-29q16 0 47 -35 h6q-18 70 -35 70q-11 -6 -18 -6zM649 1268q-17 -29 -35 -29v-6q2 -11 11 -11l18 11h6q29 -34 35 -34v46h-12v6l6 12zM538 1222v-12q2 -11 12 -11q0 11 17 11l-11 18q-12 -6 -18 -6zM352 1222q0 -9 -12 -23v-6h24l-6 29h-6zM596 1204l12 -5v17q-12 -2 -12 -12zM474 1193 q6 -12 6 -18h12v6l-6 29q-12 0 -12 -17zM375 1187v-12h6v12h-6zM620 1169q20 -50 29 -58h11l6 29q-11 32 -11 47q-35 -6 -35 -18zM335 1181v-12h11v12h-11zM689 1140v-5h12v5h-12zM556 1135v-6h11v6h-11zM689 1123v-6l30 -6v12h-30zM358 1024v-657q0 -58 70 -99h46 q70 0 70 145l-6 35q6 65 6 116v18q0 24 -6 46q0 7 6 18q-6 128 -6 192q0 55 6 180q-31 93 -87 93h-18q-72 0 -81 -87zM305 1105v-5h12v5h-12zM288 1094v-29h6l6 23zM265 1012v-5h11v5h-11zM684 966v-12q11 0 11 12h-11zM707 931v-23h6l6 23h-12zM212 908v-24h6v24h-6z M195 890v-6h12v6h-12zM689 832v-12h12v12h-12zM218 780v-18h6v18h-6zM637 762q2 -11 12 -11h17v5q-11 15 -11 24q-9 0 -18 -18zM655 681q5 -12 5 -18h6q0 9 12 24v5h-12q-11 -1 -11 -11zM212 634h18v12h-6q-12 -2 -12 -12zM660 628v-5h12v5h-12zM201 582l11 -6q12 0 12 12 l-12 5q-11 -1 -11 -11zM666 524v-6h12v6h-12zM649 483v-18h11v18h-11zM276 477v-17h12v5q0 12 -12 12zM707 436v-5h12v5h-12zM218 413v-12h18q0 12 -12 12h-6zM241 343v-6q0 -9 35 -17h6v6q-27 17 -41 17zM591 291q1 -12 11 -12v12h-11zM643 291q0 -15 -12 -29h18v29h-6z M573 279v-23h6v23h-6zM311 250v-6l24 -5l5 11v6q0 12 -11 12q-9 0 -18 -18zM247 262v-6h12v6h-12zM224 239v-6h17v6h-17zM591 239q5 -11 5 -24h6q0 13 6 24h-17zM346 221l-6 -12v-11q7 0 18 -6v17q0 12 -12 12zM643 221v-17h6v17h-6zM695 221l-6 -12v-17q9 0 18 23zM579 186 q41 -14 41 -46h23l6 29v17q-35 0 -35 18h-18q-8 0 -17 -18zM416 198q2 -12 12 -12v12h-12zM381 180q2 -11 12 -11v11h-12zM288 175q2 -12 12 -12v12h-12zM521 163v-12q3 0 23 -6v18h-23zM480 140h12v11q-12 -2 -12 -11zM561 128v-12h6v12h-6zM404 122v-11h6v11h-6zM579 111 v-6h12v6h-12z" />
<glyph unicode="e" d="M433 1379q184 0 309 -151q64 -112 64 -192l-6 -41v-23q0 -143 6 -379q-10 -69 -58 -69h-390v-140q0 -99 87 -122q67 0 116 116q0 30 152 41q49 0 87 -41v-35q0 -232 -279 -331q-50 -6 -82 -6h-6q-230 0 -325 262l-12 163q6 86 6 145q0 58 -6 140q6 58 6 87q-6 140 -6 221 q15 126 52 169q61 118 192 163q27 11 93 23zM486 1233v-34h6v34h-6zM497 1233q6 -10 6 -23h29v6q-17 0 -17 17h-18zM346 1222v-18h6v18h-6zM259 1181v-12h6l29 6q-12 15 -12 29q-9 0 -23 -23zM561 1204v-11h6v11h-6zM422 1199v-12h6v12h-6zM305 1181v-6h12v18 q-12 -2 -12 -12zM631 1193v-12h6v12h-6zM550 1152l11 -6h6v23q-8 0 -17 -17zM335 1146h5q12 0 12 12h-6q-11 -2 -11 -12zM625 1140q1 -8 30 -23h11q0 30 -17 35h-12q-12 -2 -12 -12zM323 1146v-11h6v11h-6zM358 1024v-227q45 -17 81 -17h47q52 0 52 58q6 77 6 163 q-12 110 -93 110h-18q-64 0 -75 -87zM247 1094v-6h12v6h-12zM672 1053v-6q10 6 23 6v18h-6q-8 0 -17 -18zM655 1053v-6h11v6h-11zM236 1001v-12h5v12h-5zM236 983q1 -11 11 -11l6 11h-17zM695 972v-6h12v6h-12zM207 960v-12h11v12h-11zM666 943v-6q2 -12 12 -12h6 q11 0 11 12v11zM230 937v-12h6v12h-6zM672 896l12 -6l5 12v6h-5q-12 -2 -12 -12zM253 902v-23q8 0 18 17v6h-18zM678 861v-12h6v12h-6zM625 832v-12q12 6 18 6v12q-11 -6 -18 -6zM684 815v-6h11v6h-11zM201 785h11v12q-11 -2 -11 -12zM195 762v-11h12q0 11 -12 11zM271 733 l5 -12l-5 -11h11q38 35 47 35v6h-35zM614 739q8 -1 35 -64q11 0 11 12v11q0 25 -35 53q-11 -2 -11 -12zM585 721v-11h11v11h-11zM218 710v-12h12v12h-12zM311 710v-23h12q0 9 12 23h-24zM346 704v-6h12v6h-12zM404 698q0 -29 29 -35v24q0 11 -11 11h-18zM567 675v-12h29v6 q0 8 -17 18q-12 -2 -12 -12zM463 663l11 -6h6v18h-6q-11 -2 -11 -12zM608 669v-12h12q0 12 -12 12zM486 663v-6h11v6h-11zM271 634q17 -19 17 -29q35 16 35 23q0 6 -23 24q-29 -8 -29 -18zM649 652v-12h11q0 12 -11 12zM218 640v-12h12q0 12 -12 12zM381 634v-6h18v6h-18z M445 634l-6 -11q2 -12 12 -12h6q11 0 11 12q-9 0 -23 11zM335 617v-6h29v12zM276 576v-17l12 5l12 -5v17h-6l-12 -6q0 6 -6 6zM311 576v-12h6v12h-6zM218 559v-18h6v18h-6zM282 320v-29h6v29h-6zM236 314v-11h11v11h-11zM596 262v-6h12v6h-12zM253 244v-5q2 -12 12 -12h17 v12zM620 239q1 -12 11 -12h29q0 9 -23 17q-11 -5 -17 -5zM323 233v-6h17v6h-17zM352 227v-6l6 -35h23v18q-8 0 -29 23zM579 215v-11q12 0 12 11h-12zM550 192v-17q11 0 11 11v18q-11 -2 -11 -12zM428 192q0 -6 -6 -17h11q0 6 6 17h-11zM527 157v-17q1 -12 11 -12v29h-11z " />
<glyph unicode="f" horiz-adv-x="645" d="M485 1600q64 -20 64 -64v-128q0 -81 -111 -81q-41 -34 -41 -99v-64h24q128 -10 128 -64v-134q-6 -76 -76 -76h-76v-826q-11 -58 -58 -58h-145q-53 0 -53 70v151l6 35q-11 24 -11 35q5 86 5 116q0 12 -5 12l5 40v245q0 47 -5 110q5 10 5 29q-9 37 -58 59q-23 52 -23 93v75 q0 26 76 111q0 193 75 273q39 67 111 88q105 52 163 52zM363 1379v-6h11v6h-11zM281 1303v-17q0 -9 23 -23h6q12 0 12 11v6q0 15 -41 23zM310 1257l-6 -12v-29h6q12 0 12 12v17q0 12 -12 12zM264 1239v-6h11v6h-11zM351 1164v-18h6v18h-6zM328 1158v-6h11v6h-11zM304 1123 v-18h6v18h-6zM217 1111v-6q4 -34 18 -34h5q0 9 12 23v17h-35zM316 1111v-6q10 0 29 -11v17h-29zM333 1088q0 -30 -17 -35h-12l-29 23h-6q0 -17 -40 -17v-41q10 0 64 23v-23l-6 -11h17q0 22 41 29q-6 31 -6 52h-6zM368 1071v-6h12v6h-12zM374 1024v-6h12v6h-12zM310 1001v-6 h23v6h-23zM246 995q0 -3 -6 -23h24v5q-6 12 -6 18h-12zM374 983v-17h6v17h-6zM275 977q-14 -34 -35 -34v-18l29 6q31 -6 35 -6l6 12v6q0 8 -35 34zM357 960v-35h11q12 31 12 35l-12 -6zM217 948v-11h18q0 11 -12 11h-6zM252 902v-12h12q11 0 11 12v11h-11q-12 -1 -12 -11z M304 849l-5 -11l11 -6h6v6q0 11 -12 11zM264 756l23 -17l12 17v12h-24q-11 -2 -11 -12zM252 698v-6h12v6h-12zM299 640q0 -6 -6 -6q11 -19 11 -35h6l6 29zM246 605h23v12h-11q-12 -2 -12 -12zM258 512v-17h17v17h-17zM223 442v-6h12v6h-12zM264 326v-12h5v12h-5zM316 308 v-11h6v11h-6zM269 273v-5h12v5h-12zM252 256v-12h12v12h-12zM275 256v-12h6v12h-6zM264 145v-11h5v11h-5z" />
<glyph unicode="g" horiz-adv-x="913" d="M689 1374h18q72 0 105 -47v-1465q0 -285 -274 -379l-59 -6h-58q-215 0 -309 274l-12 70q17 65 88 65q169 0 169 -41q9 0 23 -64q45 -47 70 -47q99 16 99 122q0 27 6 76q-17 59 -17 70q-14 0 -88 -11q-209 0 -315 210q-35 94 -35 257q0 31 6 163q0 20 -6 99q6 86 6 152 q-6 73 -6 88q6 11 6 17l-6 12q31 210 58 210q39 92 199 152q89 17 99 17q58 -12 117 -12q51 18 116 18zM637 1269v-12h12q0 12 -12 12zM485 1234v-23h6v23h-6zM684 1234l-6 -12v-11q2 -12 11 -12h6q12 0 12 12q0 9 -23 23zM555 1228q0 -17 -23 -17v-6q29 0 29 -41l18 12 l35 -53q9 0 23 23q-23 0 -23 24q11 0 11 11v6q-25 0 -70 41zM386 1205l-6 -12l18 -12v12q0 12 -12 12zM631 1199v-6q2 -12 12 -12h6v6q0 12 -12 12h-6zM462 1181v-17h12v17h-12zM643 1158v-12h17q0 12 -11 12h-6zM666 1135q0 -15 -12 -29v-6h12q12 0 12 11q-6 11 -6 24h-6z M678 1135v-6h11v6h-11zM275 1111v-11h6v11h-6zM368 1035v-694q0 -69 94 -88q68 0 87 100q-5 41 -5 46q0 9 5 210l-5 53q0 12 5 12q-5 68 -5 99v251q0 59 -88 82h-12q-76 -20 -76 -71zM707 1059v-12h12v23q-12 -1 -12 -11zM619 1000h24q0 12 17 12q0 12 -11 12h-6 q-9 0 -24 -24zM666 971v-17h12v6q0 11 -12 11zM684 919v-18h11v18h-11zM701 901v-6h12v6h-12zM654 872v-12q2 -11 12 -11h6v6q0 8 -18 17zM240 855v-6h12v6h-12zM217 831v-12h6v12h-6zM258 808v-12h11q0 12 -11 12zM217 790v-11h6v11h-6zM211 738v-6h12v6h-12zM666 714 q-11 6 -17 6l-6 -11l11 -6q41 6 41 17v6h-6zM199 662v-6h12v6h-12zM199 650v-11h6v11h-6zM252 650v-17h6v17h-6zM269 621v-12h6v12h-6zM234 586v-6h12v6h-12zM649 569v-6h11q12 0 12 11l-12 6q-11 -2 -11 -11zM217 545q2 -12 11 -12v12h-11zM689 533v-11h6v11h-6zM707 493 q0 -9 17 -18v18h-17zM730 475h12v12q-12 -2 -12 -12zM643 469v-6h17v6h-17zM252 446v-12h6v12h-6zM217 417l11 -6h18q12 0 12 12v5h-30q-11 -1 -11 -11zM234 358v-11h29q0 14 12 29v12h-6q-21 -30 -35 -30zM654 370v-12h6v12h-6zM608 329v-6h17q9 0 18 18v6h-18 q-8 0 -17 -18zM666 335v-12h12q0 12 -12 12zM625 277v-12h18v12h-18zM228 253v-11h6v11h-6zM345 253v-6h12v6h-12zM281 230v-6q12 0 12 12v6q-12 -2 -12 -12zM637 242v-18h17v6q0 12 -11 12h-6zM660 218v-23h12q8 0 17 17l-11 6h-18zM590 212v-11h29q0 11 -11 11h-18z M392 195v-12q9 -23 41 -23v6q-18 29 -41 29zM614 189v-12h5v12h-5zM573 183v-6h11v6h-11zM631 166v-12q9 0 23 -12q9 0 18 18v17q-23 -11 -41 -11zM468 137v-6q11 0 11 11v6q-11 -2 -11 -11zM509 148v-6h11v6h-11zM584 137v-6q2 -12 12 -12q0 20 6 29h-6q-12 -2 -12 -11z M544 113h17v18q-8 0 -17 -18zM684 131q0 -24 -35 -24v-5h40l6 29h-11zM573 84v-12h6l29 6q2 -11 11 -11l12 17q-4 0 -29 29q-8 0 -29 -29zM503 102v-6q11 0 11 -12h12v12q-6 0 -17 6h-6zM450 96v-18h12v18h-12zM474 84v-6h11v6h-11zM555 67v-6h18v6h-18zM631 67v-12h6v12h-6 zM654 37v-23h6q0 9 12 23h-18zM660 2v-11h18v5q-6 0 -18 6zM654 -50v-12q12 0 12 12h-12zM649 -103q5 -10 5 -23h6v35q-11 -2 -11 -12zM719 -103v-11h5v11h-5zM654 -179l-5 -23h11v23h-6zM689 -231v-12h12q12 0 12 12v6h-6q-11 -6 -18 -6zM573 -272h17v12h-6q-11 -2 -11 -12 zM310 -330q18 0 18 -18h11l-6 29q12 0 12 12v12h-6q-23 -10 -29 -35zM579 -325l-6 -11v-6h6q11 0 11 12zM409 -336l-35 -47h18q6 0 29 41zM450 -342q2 -12 12 -12l6 12h-18zM456 -360v-11q10 0 29 -18l6 12v6q-22 0 -35 11zM514 -400v-12h12v12h-12z" />
<glyph unicode="h" horiz-adv-x="914" d="M199 1594l29 -6h69q70 -13 70 -58v-156q301 0 388 -168q52 -82 52 -197v-939q-11 -64 -58 -64h-150q-45 0 -53 58v145q0 72 6 179l-6 12q6 10 6 23v12q0 19 -6 29q0 6 6 17q0 32 -6 64q6 181 6 313v122q-10 127 -93 127h-23q-69 -14 -69 -69v-957q0 -81 -99 -81h-93 q-69 0 -69 87q-6 72 -6 75q6 73 6 87q-6 86 -6 116l6 41l-6 52q6 160 6 220l-6 12q6 10 6 23v41q0 40 -6 40l6 70v330q0 88 -6 203q6 23 6 41q-6 38 -6 75q0 68 99 81zM228 1426v-6h17v6h-17zM251 1397h17v12h-6q-11 -2 -11 -12zM222 1380v-12h11v12h-11zM280 1362 q-3 -23 -18 -23v-17h12v11h6l11 -5v23q0 11 -11 11zM245 1339v-11q12 0 12 11h-12zM268 1316q-6 -30 -6 -35q10 0 29 -40l12 5l12 -5l17 29v17h-29zM204 1270v-6h24v6h-24zM355 1246q0 -8 17 -17l6 12l-11 5h-12zM309 1235v-12q23 0 23 -29h6q11 0 11 29q-9 0 -23 12h-17z M384 1212v-24h6q33 24 40 24v11q0 12 -11 12h-12q-9 0 -23 -23zM546 1188v-5q2 -12 12 -12q12 0 12 12v5q0 12 -12 12q-12 -2 -12 -12zM593 1188h11q12 0 12 12h-12q-11 -2 -11 -12zM291 1194v-11q12 -19 12 -29h6q11 0 11 11v12q0 10 -29 17zM575 1177v-6h24v6h-24z M558 1165v-11h6v11h-6zM251 1130l-6 -11q9 -23 17 -23q9 0 18 17q0 13 -29 17zM199 1084v-6q1 -11 11 -11q12 0 12 11v18h-12q-11 -2 -11 -12zM610 1072v-5h18v5h-18zM645 1009v-6h17v6h-17zM628 974v-12h5v12h-5zM199 910v-6h11v18q-11 -2 -11 -12zM703 916l-6 -12l12 -5 l6 11zM668 904v-23h18q-12 14 -12 23h-6zM268 858l12 -6h6v23q-9 0 -18 -17zM674 841h12v11q-12 -2 -12 -11zM674 800l12 -6h11q12 0 12 12v6h-23q-12 -2 -12 -12zM262 748h12v11q-12 -1 -12 -11zM680 759v-11h11q0 11 -11 11zM262 701v-23h6v23h-6zM686 696l-6 -12 q2 -12 11 -12q14 12 24 12v6zM193 661v-12h6v12h-6zM193 603v-17h6v17h-6zM251 580h17v11h-6q-11 -2 -11 -11zM622 574h11v12q-11 -2 -11 -12zM199 533v-5h11v5h-11zM262 522l12 -6l6 12v5h-6q-12 -1 -12 -11zM662 481v-29h12l-6 29h-6zM280 429v-6h11v6h-11zM691 417v-5h12 v5h-12zM222 412v-18h6v18h-6zM633 412v-12q12 0 12 12h-12zM680 365v-11h11q0 11 -11 11zM657 296v-6q10 0 29 -18h5v29h-5zM268 296l-6 -12v-12q2 -11 12 -11h6v23q0 12 -12 12zM657 209v-18h5q12 6 18 6v12h-23zM674 174v-12h6v12h-6z" />
<glyph unicode="i" horiz-adv-x="474" d="M159 1749q30 -6 35 -6q102 6 128 6q47 -18 47 -53v-146q0 -58 -70 -64h-140q-38 0 -59 64q12 44 12 53q-6 60 -6 93q5 28 53 53zM182 1375h129q58 -8 58 -53v-1258q0 -58 -70 -64h-152q-41 25 -41 76v94q0 80 6 210q0 6 -6 6l6 29v597l6 35q-12 30 -12 41q0 24 6 64 q-6 88 -6 147q10 76 76 76zM246 1187h12v12q-12 -2 -12 -12zM270 1182v-12h6v12h-6zM205 1135v-12h6v12h-6zM229 1059l17 -12q12 0 12 12q0 11 -12 11h-6q-11 -1 -11 -11zM223 1018v-12h6v12h-6zM182 725v-11h17v11h-17zM205 655l-17 -23h6q10 6 23 6v5q0 12 -12 12z M264 608v-6h12v18q-12 -2 -12 -12zM229 567v-17q2 -12 11 -12v18q0 11 -11 11zM235 515l-18 -29q2 -12 12 -12l23 23q0 9 -17 18zM211 439v-18h12v18h-12zM205 339v-17q2 -12 12 -12q0 12 18 12v6q0 11 -12 11h-18zM217 292v-5h23v23h-5q-9 0 -18 -18zM217 252v-6 q2 -12 12 -12v18h-12zM270 228v-6h11v6h-11z" />
<glyph unicode="j" horiz-adv-x="513" d="M232 1753l29 -6q50 6 76 6q75 -19 75 -64v-127q0 -76 -64 -76h-145q-42 0 -58 81v76q10 110 87 110zM337 1382q75 -6 75 -58v-1422q0 -298 -250 -394q-61 -12 -81 -12h-29q-52 9 -52 52l6 58v76q0 65 110 87q25 34 35 69q0 26 -6 76q6 201 6 365l-6 29q6 10 6 23 q0 47 -6 111q6 81 6 139l-6 41l6 34l-6 70q4 35 12 35l-12 162q0 15 6 47q-6 127 -6 226v81q0 13 -6 23q26 76 70 76h41q36 0 87 6zM302 1167v-12h29v6zM261 1103v-11h23v11h-23zM302 1080v-6h35v6h-35zM267 1057v-12h6v12h-6zM255 1034v-12h6v12h-6zM319 970v-23h6 q0 17 17 17v12h-5q-12 -6 -18 -6zM261 784v-6h12v6h-12zM273 680v-12h23v6zM273 598v-29h6q11 0 11 12q-11 0 -11 17h-6zM238 500v-6h12v17q-12 -1 -12 -11zM250 424q1 -11 11 -11q9 0 23 23l-11 6q-23 -9 -23 -18zM267 239h23q0 11 -11 11q-12 -2 -12 -11zM261 181v-6h12v6 h-12zM232 65v-6q2 -12 12 -12v29q-12 -2 -12 -11zM296 -51v-6q2 -12 12 -12l5 12l-11 6h-6zM273 -104v-17h6v17h-6zM273 -156v-6h11v6h-11zM261 -196v-18h6v18h-6zM191 -255v-5q8 -29 18 -29q12 0 12 11v12q-11 0 -30 11zM238 -289l17 -12q0 9 12 23l-12 6q-8 0 -17 -17z M186 -301v-6h11v6h-11zM226 -313v-17h6v17h-6z" />
<glyph unicode="k" horiz-adv-x="947" d="M262 1594q105 -15 105 -70v-527q0 -31 23 -41q67 73 116 168q71 103 110 192q38 52 93 52h139q75 0 75 -52v-23l-371 -609q263 -436 354 -568q17 -36 17 -47v-11q-8 -58 -58 -58h-185q-61 0 -168 220q-48 86 -111 162q-14 47 -34 47v-52q0 -24 -6 -24l6 -40v-238 q0 -75 -64 -75h-157q-42 0 -46 156q0 20 12 99q-12 49 -12 127v76q0 33 6 93q0 5 -6 5l6 29v47q0 21 -6 52q12 23 12 64v17q0 7 -12 64v35q0 79 6 208l-6 12l6 29q0 73 -6 180q6 80 6 104l-6 52q6 31 6 52l-6 12q0 81 162 81zM228 1443v-29h5v29h-5zM239 1374v-12h6v12h-6z M210 1356v-5h18v5h-18zM662 1200v-6h24v6h-24zM703 1165q0 -17 -23 -17v-6q2 -12 11 -12h18v35h-6zM674 1095q2 -11 12 -11h11v11q0 12 -11 12q-12 -2 -12 -12zM610 1090h6q12 0 12 11h-6q-12 -2 -12 -11zM593 1072v-6h11v18q-11 -2 -11 -12zM657 1061v-12h5v12h-5z M257 1043v-6h11v6h-11zM228 1020v-12h5v12h-5zM610 991v-23h6q12 0 12 12q0 11 -12 11h-6zM529 974v-12h6v12h-6zM494 956v-5h18v5h-18zM228 933v-17h5v17h-5zM570 927q1 -11 11 -11h6q12 0 12 11v6zM291 910v-6l6 -40h-11q-24 9 -24 40h-5q0 -23 -29 -23v-12q13 0 63 -29 h12v6q0 18 12 70l-12 6q-12 -2 -12 -12zM355 893v-6h12v6h-12zM488 881v-23h12q12 0 12 11v12h-24zM187 864v-12l23 -6l6 12v6q0 11 -12 11h-5q-12 -2 -12 -11zM338 864v-24q17 0 23 -29l17 -11h23q0 17 24 17v6q-64 8 -64 46q-10 -5 -23 -5zM228 864v-12h5v12h-5zM430 829 l24 -23h5q12 0 12 11v41h-6q-24 -8 -35 -29zM228 846v-6l5 -29h12v29q-11 6 -17 6zM251 782v-5q11 -15 11 -24h12q0 18 23 18v6q-6 0 -17 5q6 24 23 24v11q-35 0 -52 -35zM303 765v-6h17q0 -30 -17 -35q-12 14 -12 35q-17 -23 -29 -23v-46l-11 -18v-23q2 -12 11 -12 q18 0 18 29h11q0 -29 -11 -29q0 -10 35 -40v-6q18 0 40 23h6q11 -2 11 -11v-18q0 -8 -17 -17h-40v-6q5 -11 5 -17l12 6h6q11 -2 11 -12l-17 -23l11 -6h53v12q-29 4 -29 17q45 58 52 58q0 4 -18 64h-17l-41 -35h-23v29q23 17 35 17q0 -6 6 -6q0 12 23 12v6q-9 0 -35 35h-17 v17h29v-12h6q0 13 5 24l-29 52h-23q-17 -6 -17 -35zM477 788q-9 -23 -18 -23l-29 6q0 -20 -5 -29l11 -6q3 12 29 23q6 -11 6 -17q17 6 17 35q0 11 -11 11zM390 765v-6h17v6h-17zM378 742l-6 -29h24q-6 9 -6 29h-12zM396 678h34q18 4 18 46h-6q-7 0 -46 -46zM500 713 q-8 -29 -29 -29v-18h17q0 14 24 35q0 12 -12 12zM210 684v-12q12 0 12 12h-12zM199 661v-18h5v18h-5zM448 655l-6 -12v-11h23v5q0 9 -17 18zM239 574v-23h12v23h23v-23l-12 -18q0 -11 41 -23v6l-12 40v6q18 0 18 6q-23 27 -23 35q-34 0 -41 -29h-6zM425 591v-29l34 -6v6 q0 8 -29 29h-5zM512 574v-12h5v12h-5zM396 551q1 -12 11 -12l6 12h-17zM465 545v-6h18v6h-18zM454 539v-12h5v12h-5zM413 510q6 -11 6 -17q-6 0 -6 -6q10 0 29 -12l6 12q-6 35 -18 35h-5q-12 -2 -12 -12zM471 464q-11 5 -17 5v-17q9 0 23 -12h6q15 0 23 47v11zM552 487 l-11 -23h23q11 0 11 11zM280 481q0 -12 -29 -12q29 -15 29 -23v-6h11q12 0 12 12v12q0 8 -23 17zM315 481q1 -12 11 -12h6v12h-17zM338 469h11v12q-11 -2 -11 -12zM512 435v-6h11v6h-11zM570 435q0 -13 -6 -24q7 -29 17 -29q12 0 12 12v17q0 9 -23 24zM425 423v-6h17v6h-17z M315 394v-6q5 -10 5 -23h12v12q0 8 -17 17zM506 394v-17h17v17h-17zM581 353q-23 -25 -23 -29h58v24q-30 5 -35 5zM291 307h6q12 0 12 12h-6q-12 -2 -12 -12zM633 313v-6q2 -12 12 -12l6 12v6h-18zM251 301v-6h11v6h-11zM228 237v-11q34 6 34 17v23q-34 -21 -34 -29z M691 243q0 -14 -11 -29q17 0 17 -23h6q12 0 12 12q-12 13 -12 40h-12zM674 203v-12h6v12h-6zM720 110v-6h12v6h-12z" />
<glyph unicode="l" horiz-adv-x="471" d="M280 1588q81 -7 81 -35v-1513q-21 -40 -58 -40h-162q-23 10 -41 64q0 15 6 156q0 13 -6 23q6 32 6 52v12q0 146 -6 359l6 29q-6 41 -6 70q0 120 6 284q0 11 -6 104q6 76 6 215q0 14 -6 46l6 35l-6 81q0 58 180 58zM274 1258v-29h6l6 29h-12zM233 1211l6 -11q10 6 23 6v17 q-14 -12 -29 -12zM216 1200h12v11q-12 -1 -12 -11zM251 1084v-12h6v12h-6zM233 1061l-5 -12v-6h17v6q0 12 -12 12zM239 1008v-17q12 0 12 12v5h-12zM193 910v-6h11v6h-11zM251 893v-6h11v6h-11zM222 782v-5h17v5h-17zM222 649l-6 -23l12 -6v29h-6zM199 632v-6h11v6h-11z M228 603h17v17q-8 0 -17 -17zM274 597v-6q2 -11 12 -11v17h-12zM193 481h23v17q-23 -8 -23 -17zM245 498v-5h12v5h-12zM216 435v-12h6v12h-6zM193 319v-12h11q0 12 -11 12zM216 185v-5h12v5h-12zM257 156v-5h11v5h-11zM216 151v-6h12v6h-12zM274 151v-18h6v18h-6z" />
<glyph unicode="m" horiz-adv-x="1365" d="M193 1368h11q23 0 145 -12q22 0 145 6q89 -17 174 -64q89 37 215 64h29q154 0 278 -145q64 -85 64 -249v-893q0 -75 -64 -75h-157q-40 25 -40 81v93q0 27 -6 58l6 29q-6 84 -6 92l6 58q0 10 -6 70q0 58 6 145q-6 160 -6 220q6 155 6 191q-50 64 -87 64h-23 q-76 0 -76 -150v-911q-20 -40 -58 -40h-145q-44 0 -58 64q6 79 6 98q0 30 -6 116q0 5 6 46q-6 61 -6 99q0 29 6 87q0 13 -6 23q6 82 6 139v128q0 272 -29 272q-33 29 -58 29h-23q-64 0 -75 -87v-956q-12 -58 -58 -58h-145q-51 0 -58 75q0 50 6 157l-6 40q6 42 6 47 q0 53 -6 81q6 171 6 301v319l-6 35q6 11 6 17q-6 190 -12 215q0 81 93 81zM506 1240v-5h11v17q-11 -2 -11 -12zM407 1246v-17q6 0 18 -6v6q0 8 -18 17zM575 1235v-6h12v6h-12zM749 1229v-12h6v12h-6zM303 1223v-17h6v17h-6zM349 1223v-12h12q0 12 -12 12zM917 1217v-6 q2 -11 12 -11h6v6q0 11 -12 11h-6zM964 1217v-6h23v6h-23zM657 1177v-6h5q24 6 24 35l-12 5q-17 -5 -17 -34zM303 1188v-11l29 -6l6 11q0 9 -18 18h-5q-12 -2 -12 -12zM251 1188v-6h11v6h-11zM471 1188v-11h6v11h-6zM796 1182v-11h6v11h-6zM1039 1177q8 -29 18 -29h5l6 29 l-11 5h-6zM448 1177v-18h11v18h-11zM338 1136l17 -12q9 0 17 24q-5 11 -5 17q-8 0 -29 -29zM471 1165q2 -12 12 -12v12h-12zM616 1148v-18q9 6 35 6v17q0 12 -12 12h-6q-8 0 -17 -17zM686 1165v-6h11v6h-11zM761 1165v-6h12v6h-12zM216 1159v-23h12v12q0 11 -12 11z M280 1159v-6h11v6h-11zM286 1148q0 -12 -12 -12q6 -10 6 -23h17q12 0 12 11v12q-9 0 -23 12zM773 1136v-12q13 0 23 -5v11zM668 1130q-8 -33 -23 -52v-17h12l23 34h6v18q0 8 -18 17zM1080 1066h23v12h-12q-11 -2 -11 -12zM286 1066q-12 -41 -12 -46q9 0 23 23v23h-11z M228 1055q0 -9 -12 -23v-12h17q12 0 12 12q-9 23 -17 23zM657 1008h11v12q-11 -2 -11 -12zM1120 997q0 -12 -5 -12l5 -11l-11 -18h11q9 0 29 35v6h-29zM239 951v-6q2 -12 12 -12v18h-12zM726 927v-17q12 0 12 12v5h-12zM228 898v-11h5v11h-5zM657 887q0 -11 52 -23v23 q-18 0 -18 11q-19 -11 -34 -11zM1097 846v-11h18q0 11 -12 11h-6zM657 823v-12h11v12h-11zM674 806v-12h12v12h-12zM262 794v-12h6v12h-6zM645 748q0 -9 23 -24v24h-23zM222 736v-12h6v12h-6zM680 730v-29h11v29h-11zM651 695v-17h6v17h-6zM668 695v-5h12v5h-12zM1109 643 q6 -11 6 -17h5v29q-11 -2 -11 -12zM697 632q2 -12 12 -12h11v12q0 11 -11 11q-12 -2 -12 -11zM662 632v-6h18v6h-18zM1132 620v-6h12v6h-12zM1132 597v-12h6v12h-6zM1074 591v-23h6v23h-6zM1144 591v-6h11v6h-11zM1132 580v-12h6v12h-6zM1132 469h23q10 0 18 29 q-12 0 -12 24h-6q-9 0 -23 -53zM1091 516q2 -12 12 -12v12h-12zM187 464v-12q12 0 12 12h-12zM1086 458v-47q11 0 11 12v23q0 12 -11 12zM680 429v-18q2 -11 11 -11h12v29h-23zM257 394v-12h5v12h-5zM291 371v-12h6v12h-6zM1144 371v-6h11v6h-11zM680 348l-12 -18 q2 -11 12 -11l11 17q0 12 -11 12zM1091 342q2 -12 12 -12v12h-12zM1115 336q1 -12 11 -12v12h-11zM268 307h23v12h-11q-12 -2 -12 -12zM268 301v-35h6v35h-6zM674 266h12v12q-12 -2 -12 -12zM662 249v-17h6v17h-6zM216 243v-11h6v11h-6zM1132 237v-5h12v5h-12zM245 220 l12 -6v18q-12 -2 -12 -12zM1144 180v-18h11v18h-11zM251 145v-18h11v18h-11z" />
<glyph unicode="n" d="M233 1374q96 -18 145 -18h128q86 0 220 -110q81 -109 81 -255v-916q0 -75 -69 -75h-139q-44 0 -58 81q5 153 11 209q-11 19 -11 34q0 67 11 111l-11 168q5 78 5 110q0 22 -5 209l5 52q0 127 -87 127h-23q-69 -14 -69 -69v-957q0 -75 -64 -75h-145q-58 0 -58 87q0 17 6 40 q-6 77 -6 128q0 23 6 104l-6 12l12 75q-12 61 -12 76l12 110q-12 90 -12 174v87q0 51 6 115q-6 21 -6 58l6 53q0 5 -6 5l6 29v53q0 33 -6 92q22 76 133 76zM372 1252v-6h12v6h-12zM274 1217v-6q2 -11 12 -11h17q0 17 35 17v12q0 11 -12 11q-52 -10 -52 -23zM454 1240v-5 q1 -12 11 -12h12q0 9 -23 17zM245 1206v-6h12v6h-12zM291 1136v-12q6 0 6 6l29 -6h12v29q0 12 17 12v23h-23q-24 -15 -41 -52zM494 1188v-11h6v11h-6zM575 1177v-29h6v29h-6zM216 1153q0 -10 -17 -29q1 -11 11 -11h12l11 40h-17zM645 1119q0 -16 -12 -35h24q11 0 11 11v24 h-23zM315 1095v-17h11v17h-11zM193 1055l11 -6h6v23q-8 0 -17 -17zM228 1043l17 -11h23v17q0 12 -11 12h-12q-8 0 -17 -18zM268 997v-6q12 -39 12 -64q11 0 11 12v41q0 8 -17 17h-6zM222 974v-12h6q11 0 11 12h-17zM674 951q0 -3 -6 -24h12v24h-6zM657 933v-11h5v11h-5z M697 887v-29h18q11 0 11 11v12q-19 0 -29 6zM245 811h17v12h-5q-12 -2 -12 -12zM239 765v-6q0 -8 18 -17v11q0 12 -12 12h-6zM697 742v-12h6q12 0 12 12h-18zM251 736v-6h17v6h-17zM651 736v-17h11v5q0 12 -11 12zM662 707l-5 -12q5 -11 5 -17q24 9 24 17v6zM216 481h12v12 q-12 -2 -12 -12zM680 464v-12q2 -12 11 -12q12 0 12 12l-17 12h-6zM645 429l-6 -12v-6q2 -11 12 -11l6 11v6q0 12 -12 12zM697 406h23q0 11 -11 11q-12 -2 -12 -11zM204 371l-5 -12v-6h17v6q0 12 -12 12zM662 353v-5q12 0 12 11v6q-12 -2 -12 -12zM715 336v-12h5v12h-5z M715 319v-12h5v12h-5zM645 301v-6h6q11 0 11 12v6h-5q-12 -2 -12 -12zM262 203v-12q12 0 12 12h-12zM691 191v-6h12v6h-12zM204 180v-6h12v6h-12zM228 180v-12h5v12h-5z" />
<glyph unicode="o" horiz-adv-x="899" d="M390 1368h81q178 0 302 -185q34 -83 34 -169v-637q0 -268 -266 -360q-44 -11 -82 -11h-5q-223 0 -325 220q-29 66 -29 267q6 35 6 87q0 6 -6 17l6 35v75q0 43 -6 64q6 38 6 75v145q0 213 168 325q90 52 116 52zM372 1229v-6h29v6h-29zM465 1217q2 -11 12 -11l6 11v12h-6 q-12 -2 -12 -12zM535 1223v-6h11v6h-11zM407 1194h18v12h-6q-12 -2 -12 -12zM535 1206q0 -18 -18 -18q2 -11 12 -11h23v6q-8 23 -17 23zM320 1159l12 -5v17q-12 -2 -12 -12zM274 1159q12 -14 12 -29h11l-6 12l6 12l-11 5h-12zM581 1148v-18h6v18h-6zM233 1113l24 -17l5 29 h-17q-12 -2 -12 -12zM291 1119q2 -12 12 -12q12 0 12 12h-24zM599 1107v-6h11v18q-11 -2 -11 -12zM367 1038v-679q0 -64 69 -98q82 0 116 69q0 88 -6 203l6 58q-6 12 -6 18q6 11 6 17t-6 6q0 4 6 35q0 16 -6 116q6 51 6 63q0 6 -6 6l12 162q0 73 -104 93h-18 q-69 -17 -69 -69zM662 1101v-5q2 -12 12 -12q12 0 12 12zM703 1072v-17h6v17h-6zM286 1049q1 -11 11 -11l12 17v6h-12q-11 -2 -11 -12zM216 957v-12h12v12h-12zM239 951q2 -12 12 -12h6q0 12 -12 12h-6zM204 922v-6h12v17q-12 -1 -12 -11zM245 875v-11h12v23q-12 -2 -12 -12 zM262 887v-6h12v6h-12zM720 846v-11q12 0 12 11h-12zM657 800l-6 -12l11 -5h6v5q0 12 -11 12zM268 783v-18h12v6q0 12 -12 12zM657 730l23 -17l6 12v11q0 12 -12 12q-8 0 -17 -18zM210 707v-6q2 -11 12 -11v17h-12zM674 684v-17h6v17h-6zM709 678v-11h11q0 11 -11 11z M233 632v-6q2 -12 12 -12h6v6q0 12 -12 12h-6zM639 632v-12h12v12h-12zM651 609v-12h11v12h-11zM726 533v-11h6v11h-6zM680 528v-6h11v6h-11zM668 452q2 -11 12 -11h6v23h-6q-12 -2 -12 -12zM268 446v-5h12v17q-12 -2 -12 -12zM251 388h11v12q-11 -2 -11 -12zM181 371v-12h6 v12h-6zM662 354q0 -9 -23 -24h23q0 7 6 18v6h-6zM204 342v-6q0 -8 29 -29q12 0 12 12v11q-9 0 -23 12h-18zM680 307v-6h11v6h-11zM622 290v-6q6 0 17 -6h6v6q-6 0 -17 6h-6zM303 261h17v11h-5q-12 -1 -12 -11zM315 255v-12h5v12h-5zM268 238v-6h12v6h-12zM320 232v-6 q2 -12 12 -12v18h-12zM262 214v-11h6v11h-6zM512 209v-12h5v12h-5zM541 203q7 -58 23 -58l11 6q-12 52 -23 52h-11zM384 180v-6q12 0 12 12v5q-12 -2 -12 -11zM604 191v-5q6 -12 6 -18q12 0 12 12q0 11 -12 11h-6zM465 157v-24q18 -19 18 -29h11v24q-15 28 -23 29h-6z" />
<glyph unicode="p" horiz-adv-x="907" d="M243 1376q36 -10 140 -23q52 11 75 11h12q143 0 278 -139q64 -102 64 -197v-685q0 -228 -255 -331l-99 -17l-87 11v-452q-6 -70 -58 -70h-151q-32 0 -52 41l6 40v140q0 124 -6 336l6 29q-6 30 -6 70v11q0 45 6 82q-6 30 -6 69q0 24 6 47l-12 139q12 27 12 110 q0 87 -6 157l6 81q0 38 -6 99q6 113 6 244q0 40 -6 127q18 70 133 70zM313 1272v-18h6v18h-6zM249 1260v-23h12v11q0 12 -12 12zM510 1243q2 -12 12 -12h6q0 12 -12 12h-6zM539 1231v-6h12v6h-12zM301 1202q18 -29 18 -41l23 18h12l11 -6v17q-17 0 -17 23h-35 q-12 -1 -12 -11zM499 1208q-6 -31 -6 -35h23q12 0 12 11v18q-20 0 -29 6zM383 1202v-6h11v6h-11zM609 1173v-6h11v6h-11zM609 1161v-17h6v17h-6zM243 1138v-23h18q11 0 11 11l-17 12h-12zM296 1103l-12 -17h23v6q0 11 -11 11zM371 1028v-673q19 -93 75 -93h41q70 30 70 127 q0 6 -6 6l11 93l-11 93q0 3 6 75q-6 160 -6 203l-6 24q12 35 12 104q-14 116 -111 116q-75 -19 -75 -75zM284 1074v-17q12 0 12 11v6h-12zM650 1074v-11h5v11h-5zM278 1051v-12h12v12h-12zM232 1039v-5h11v5h-11zM214 1010q0 -8 18 -17v17h-18zM644 987v-11h6v11h-6z M261 970v-12l5 -11q12 5 18 5v6q0 12 -12 12h-11zM650 854v-12h5q12 0 12 12h-17zM661 836v-6h12v6h-12zM719 767v-12h12v12h-12zM214 732l18 -12l5 12v11h-11q-12 -1 -12 -11zM243 668h12v12q-12 -2 -12 -12zM261 662v-6q2 -11 11 -11h6v6q0 11 -12 11h-5zM208 627v-11h18 q0 11 -12 11h-6zM708 616v-6h11v6h-11zM673 552v-12h6v12h-6zM243 505l-6 -11v-6h24q0 8 -18 17zM702 476v-5q2 -12 11 -12v17h-11zM266 447h18v12h-6q-12 -2 -12 -12zM249 418v-11h6q11 0 11 11h-17zM667 418v-17h6v17h-6zM684 413q0 -9 -11 -24q17 0 17 -23h6v35 q0 12 -12 12zM626 372v-12h12q0 12 -12 12zM679 355v-12h11v12h-11zM266 337v-6h24v6h-24zM626 302h12v12q-12 -2 -12 -12zM684 308v-6q2 -11 12 -11h12v6q0 11 -12 11h-12zM220 279l12 -6l5 12v6h-5q-12 -2 -12 -12zM255 256q6 -11 6 -18h17l6 35q-6 12 -6 18 q-12 0 -23 -35zM301 238q0 -5 -5 -5l5 -29v-6q-35 0 -35 -23q6 -12 6 -18q-8 0 -17 -17v-6h23v29q20 35 29 35l12 -6l6 23q-5 18 -24 23zM208 209v-5q2 -12 12 -12v17h-12zM342 192q2 -12 12 -12h5q12 0 12 12h-29zM499 180v-5h11v5h-11zM580 175v-12h6v12h-6zM203 163v-12 h5v12h-5zM475 157v-6h12v6h-12zM301 128q2 -11 12 -11l29 5q2 -11 12 -11q11 0 11 29q-14 11 -23 11q-41 -8 -41 -23zM383 146v-12h5v12h-5zM429 122v-11h6v11h-6zM266 105v-12q20 0 30 -5l5 11v6h-35zM249 99v-6h12v6h-12zM470 99v-6h11v6h-11zM307 47v-6l23 -6v12 q0 12 -11 12q-12 -2 -12 -12zM243 18v-12h6v12h-6zM278 -98v-12h12v12h-12zM255 -261v-11h6q8 0 17 17l-12 6q-11 -2 -11 -12zM255 -330v-18h6v18h-6z" />
<glyph unicode="q" d="M631 1380h98q70 0 70 -52v-1781q0 -51 -75 -58q-220 6 -372 6q-17 0 -35 64v121q0 55 82 76l93 -6q52 0 52 116v23q0 71 -18 128q-70 -7 -81 -12q-221 0 -331 244q-17 64 -17 69q0 6 6 6l-6 58v41q0 84 6 191l-6 29q6 32 6 47q0 45 -6 81q6 65 6 151v46q0 21 -6 52 q45 227 87 227q0 53 215 127h17q73 -11 122 -11h12q75 17 81 17zM497 1281v-11h6v11h-6zM317 1235q6 -11 6 -17h6v29q-12 -2 -12 -12zM579 1247v-6q8 -23 17 -23l17 23zM671 1247v-12h12v12h-12zM515 1218v-6h11v6h-11zM341 1200v-23q1 -12 11 -12v47q-11 -2 -11 -12z M433 1212v-18l24 -5v5q0 9 -24 18zM602 1200v-11q30 -6 35 -6l5 11q0 9 -17 18h-12q-11 -2 -11 -12zM265 1183v-12h12q0 12 -12 12zM474 1183v-12h12q0 12 -12 12zM532 1183v-6h12v6h-12zM584 1183v-6l12 -41l12 6h34v12zM283 1160v-6h11v17q-11 -2 -11 -11zM364 1160v-6h11 v6h-11zM561 1160v-6h12v6h-12zM695 1148v-17h17q0 8 -17 17zM265 1136v-11h6v11h-6zM631 1131l-6 -29v-6q2 -12 12 -12q11 0 11 12v6l-6 29h-11zM358 1026v-667q0 -76 105 -93q51 0 75 70q6 201 6 255q-6 362 -6 400l6 29q-31 93 -93 93h-18q-63 0 -75 -87zM213 1090v-6h12 v6h-12zM602 1055q2 -11 11 -11l6 11v18q-8 0 -17 -18zM219 1032v-6h17v6h-17zM654 997v-6h12v6h-12zM219 893q11 -14 11 -23q12 0 12 11v6zM225 858l-6 -23q11 0 11 -18h12q-12 30 -12 41h-5zM677 829v-6h12v6h-12zM248 823l6 -29q-6 0 -6 -6l11 -5q12 0 12 11q-12 0 -12 29 h-11zM207 806v-6h12v6h-12zM671 748v-18q11 6 24 6v18h-6q-11 -6 -18 -6zM184 672v-11h6v11h-6zM642 655l-5 -12l11 -5h6v5q0 12 -12 12zM178 597v-6h12v6h-12zM248 562v-6h11v6h-11zM213 527v-5h12v5h-12zM666 458q26 -29 34 -29q18 27 18 46h-6q-43 0 -46 -17zM236 417 v-17q2 -12 12 -12v29h-12zM196 394v-12q1 -11 11 -11v23h-11zM213 318q2 -11 12 -11q11 0 11 11q0 12 -11 12q-12 -2 -12 -12zM613 313q2 -12 12 -12h23q0 4 -17 17q-11 -5 -18 -5zM242 313q2 -12 12 -12h11v12h-23zM689 307v-12h17v12h-17zM660 260v-5h17q0 13 6 23h-6 q-8 0 -17 -18zM619 249q0 -9 -11 -23q1 -12 11 -12h12v35h-12zM660 249v-35h35v12q-18 0 -35 23zM567 231v-11h6v11h-6zM509 197v-6q2 -12 12 -12h5v35q-8 0 -17 -17zM300 197v-6h12v17q-12 -2 -12 -11zM573 191v-35l-6 -12l-29 6h-12q0 -19 -40 -23v-6l11 -6h24 q19 16 104 35q-2 18 -41 41h-11zM428 185l-6 -12h35v6zM352 150l-6 -11v-6q2 -12 12 -12h23v12q0 13 -29 17zM399 139v-6h11v6h-11zM619 133v-6h12v6h-12zM428 121v-11h11q0 11 -11 11zM660 110v-35q7 0 23 35h-23zM573 63h11l24 18l5 -12l-11 -17q0 -9 17 -18q9 23 18 23 q10 -5 23 -5v17q-47 0 -47 23q6 0 6 6h-23q-23 -12 -23 -35zM631 -24v-11q11 0 11 11h-11zM683 -47h17v12h-5q-12 -2 -12 -12zM654 -53v-11h12q11 0 11 11h-23zM677 -76v-17h6v17h-6zM660 -99v-6h11v6h-11zM648 -146v-11h12v23q-12 -2 -12 -12zM613 -146l-5 -11v-6h17v6 q0 11 -12 11zM631 -198v-11q2 -12 11 -12l12 17l-12 6h-11zM619 -256q0 -21 -11 -35l23 -5v29q0 11 -12 11zM561 -273v-6q2 -12 12 -12q0 12 17 12v6q0 11 -11 11h-6q-12 -1 -12 -11zM654 -273l6 -12v-6l-12 -17v-6l23 -6q0 6 6 6q-6 23 -6 41h-17zM590 -285v-17h6v17h-6z M666 -331l5 -29q6 0 35 40h-17q-14 -11 -23 -11zM608 -349h23v12h-12q-11 -2 -11 -12zM486 -343v-11h11v11h-11zM590 -349q0 -9 -11 -23q1 -11 11 -11h6v34h-6zM654 -354v-6h12v6h-12zM463 -383v-29q9 0 23 23v6h-23zM544 -407h17v12h-6q-11 -2 -11 -12z" />
<glyph unicode="r" horiz-adv-x="566" d="M158 1374q137 -12 249 -12l41 6q58 0 64 -69v-99q0 -99 -105 -99q-46 -34 -46 -81v-956q0 -64 -104 -64h-93q-64 12 -64 64q0 38 6 98q0 13 -6 64q6 68 6 99q0 39 -6 69q6 81 6 157v35q0 143 -6 284q6 62 6 197l-6 29l6 29q-6 124 -6 185q17 64 58 64zM257 1270v-6 q11 -15 11 -29h18q-6 35 -29 35zM338 1223h11v12q-11 -2 -11 -12zM338 1212q0 -3 -6 -24h17v12q0 12 -11 12zM245 1183v-12h35v-23h11q14 11 24 11v6q-11 0 -41 41q-17 -23 -29 -23zM204 1159l12 -5q12 0 12 11l-12 6q-12 -2 -12 -12zM210 1148v-6h12v6h-12zM233 1119v-12h6 q11 6 18 6v6h-24zM274 916h12v12q-12 -2 -12 -12zM216 910v-23h17q-5 10 -5 23h-12zM187 817v-5h12v5h-12zM251 707v-17h6v17h-6zM216 643q2 -11 12 -11q11 0 11 11q0 12 -11 12q-12 -2 -12 -12zM251 522v-18q11 0 11 12zM239 423v-17h18v17h-18zM233 377v-12q12 0 12 12 h-12zM193 365v-11h11q0 11 -11 11zM216 319v-23h6v23h-6z" />
<glyph unicode="s" horiz-adv-x="861" d="M429 1374q173 -35 244 -104q104 -104 104 -256q0 -23 -40 -52h-168q-42 0 -70 110q-39 35 -87 35q-75 -19 -75 -75v-29q0 -155 232 -261q208 -119 208 -388q0 -243 -272 -342q-74 -8 -81 -12q-213 0 -319 214q-23 51 -35 116q0 65 81 87q186 0 186 -75q0 -41 81 -81 q93 9 93 75v81q0 95 -238 221q-197 124 -197 371v17q8 122 98 238q136 104 244 104q0 6 11 6zM383 1264v-12h6v12h-6zM429 1229v-23q12 0 12 11v12h-12zM279 1183v-6h11v6h-11zM598 1159v-11h5v11h-5zM290 1154l-5 -12h28v6zM661 1113v-17h6v17h-6zM250 1096v-12h6v12h-6z M169 939l11 -6v18q-11 -2 -11 -12zM244 928v-6q17 -29 17 -41h12v35q0 12 -12 12h-17zM261 806v-6h12v6h-12zM313 771q6 -35 18 -35h6q11 0 11 12q-17 0 -17 23h-18zM418 678q2 -11 11 -11v11h-11zM493 638v-6h12v6h-12zM545 562v-5h18v5h-18zM563 545v-12h6v12h-6zM569 504 q1 -11 11 -11h6v11h-17zM598 446v-5h23q0 6 6 17h-6q-14 -12 -23 -12zM609 423v-29h6q0 9 12 23v6h-18zM644 383v-18q0 -8 17 -17h6v6q-11 14 -11 29h-12zM609 365v-11h6v11h-6zM609 296v-6h6q12 0 12 11v12q-9 0 -18 -17zM221 267v-6q0 -8 17 -18v12q0 12 -11 12h-6z M540 232q-7 -28 -24 -46h18q17 5 17 34q0 12 -11 12zM580 209l12 -6v17q-12 -2 -12 -11zM296 203v-12h6v12h-6zM598 191v-11h11v23q-11 -2 -11 -12zM371 186v-12h6v12h-6zM522 174v-6h12v6h-12zM366 145v-17h11v17h-11z" />
<glyph unicode="t" horiz-adv-x="599" d="M231 1600q162 0 162 -70v-150q18 0 70 -12l11 6q54 -23 64 -46v-163q0 -51 -75 -58h-70v-753q0 -64 134 -111q11 -19 11 -34v-145q-11 -58 -58 -58h-11q-220 0 -319 237q-12 92 -23 250l11 133q-6 23 -6 46q0 55 6 99q-6 58 -6 87q6 168 12 180q-17 75 -52 75 q-35 20 -35 52v128q0 42 64 93q17 21 17 40v104q0 51 93 70zM260 1386q0 -4 29 -29v-6l-23 -23q6 0 6 -6q8 6 34 6q0 48 -29 69h-5q-12 -2 -12 -11zM202 1374v-6q2 -11 12 -11h23q11 0 11 11q-14 0 -46 6zM254 1322q0 -41 -40 -41v-35h5q53 10 53 58q-6 12 -6 18h-12z M277 1299v-6h12v6h-12zM324 1299v-12h29v6zM289 1270v-18h11l6 29h-6q-11 -2 -11 -11zM219 1165l6 -11v-6q0 -7 -35 -29v-6h35q0 23 18 23v35q37 12 46 12v23q-12 14 -12 17l6 29h-11q-21 -5 -47 -87h-6zM306 1223v-6q0 -11 18 -11q23 8 23 17v23h-18q-9 0 -23 -23z M393 1246l-6 -11q2 -12 12 -12l6 12q0 11 -12 11zM370 1212v-12h6q11 0 11 12h-17zM277 1136h18q8 0 17 18l29 -6h17l-5 11q17 6 17 12l12 -6h5v6q-11 0 -11 23h-12q-69 -21 -69 -46q-18 0 -18 -12zM214 1183v-12q11 0 11 12h-11zM353 1142v-12h5v12h-5zM254 1107v-11 q2 -12 12 -12h11v12q0 11 -11 11h-12zM260 1009v-18q12 0 12 12v6h-12zM289 974v-12h6v12h-6zM306 933v-5q12 0 12 11v6q-12 -2 -12 -12zM260 933v-17h17q0 8 -17 17zM254 870v-6h12v6h-12zM272 829v-17h11v17h-11zM254 701v-11q12 0 12 11v12q-12 -2 -12 -12zM225 580h12 q11 0 11 11h-11q-12 -2 -12 -11zM283 574v-12h12v12h-12zM231 481v-11h23v5zM272 458h11v12q-11 -2 -11 -12zM272 383l11 -6h12v23h-6q-8 0 -17 -17zM248 348v-12h6v12h-6zM272 348v-6h11v6h-11zM289 336v-6h11v6h-11zM289 284v-12h23q0 12 -12 12h-11zM289 220v-11h11v11 h-11zM382 209v-6h17v6h-17zM347 180v-12q11 0 11 12h-11z" />
<glyph unicode="u" horiz-adv-x="927" d="M626 1380q10 -6 23 -6q11 0 11 6q145 0 145 -76v-1223q0 -81 -98 -81h-81q-48 0 -76 17l-104 -17q-251 0 -336 284l-12 116q6 38 6 75v41q0 31 -6 52q6 31 6 58v35q0 43 -6 64q6 38 6 75v58q0 94 -6 139q6 50 6 128q0 38 -6 179q0 49 81 70q180 -12 180 -46v-905 q0 -156 87 -156h46q52 31 52 75v116q0 24 -5 46q5 22 5 53q0 65 -5 197l5 11l-5 29q0 58 5 244q0 7 -5 58q5 30 5 69q0 6 -5 6l5 29q0 34 -5 93q13 87 87 87zM695 1188q2 -11 12 -11q11 0 11 11q0 12 -11 12q-12 -2 -12 -12zM684 1136v-17h5q12 6 18 6v5l-6 12 q-11 -6 -17 -6zM231 1090v-6h18v6h-18zM660 1061v-12h6v12h-6zM191 1043h23q0 12 -12 12q-11 -2 -11 -12zM707 1055v-6h11v6h-11zM220 1014l-6 -11q2 -12 12 -12l5 12q0 11 -11 11zM660 1014q6 -10 6 -23h12q0 13 6 23h-24zM191 986h17v11h-6q-11 -2 -11 -11zM220 933v-11h6 q11 0 11 11h-17zM637 922q2 -12 12 -12v12h-12zM655 910l-6 -23h11v23h-5zM249 864v-18h23v18h-23zM649 852v-6h11v6h-11zM684 771v-6h17v18h-6q-11 -2 -11 -12zM202 655v-6q2 -11 12 -11l12 17h-24zM220 609v-12h6v12h-6zM649 597v-29h23v6q0 9 -23 23zM202 574v-23h29v6 q-10 0 -29 17zM672 539v-17h6v17h-6zM243 441q2 -12 12 -12l5 12v11h-5q-12 -2 -12 -11zM713 452v-17q11 0 11 11zM237 359v-5h12q11 0 11 11l-11 6q-12 -2 -12 -12zM626 359v-17h5v17h-5zM684 290v-6h11v6h-11zM649 278v-6h11v6h-11zM568 243v-17h23v6q0 11 -12 11h-11z M695 238v-6h18v6h-18zM365 220v-6h23v6h-23zM637 203v-6q12 0 12 12v5q-12 -1 -12 -11zM660 197v-23q2 -12 12 -12q0 9 12 24v11h-24zM289 191v-5h12v5h-12zM585 186v-18q2 -11 12 -11v17q0 12 -12 12zM504 180v-6h11v6h-11zM423 168v-6h29v6q-12 0 -12 6q-11 -6 -17 -6z M649 145v-6q0 -8 17 -17v23h-17zM492 133l6 -29h6q8 0 17 18v17zM602 139v-6q2 -11 12 -11h6v6q0 11 -12 11h-6z" />
<glyph unicode="v" horiz-adv-x="871" d="M82 1378l40 -6q61 6 99 6q63 0 88 -244q17 -58 106 -528q20 0 29 75q11 0 17 41q-6 23 -6 41q21 26 59 285q10 6 45 260q16 52 47 64q12 0 12 6l58 -6q29 0 87 6q70 -11 70 -52q-250 -1232 -267 -1297q-30 -29 -52 -29h-181q-71 0 -83 113q-61 295 -126 609l-95 487 q-6 0 -23 105q0 47 76 64zM122 1209v-5h12v5h-12zM151 1151l12 -17l-6 -12v-6h6q0 9 15 -12q28 41 -15 59q-12 -2 -12 -12zM694 1240v-18h12v18h-12zM221 1105v-6h12v6h-12zM192 1064zM205 1089h6q13 -64 12 11v6q-9 0 -18 -17zM659 1100v-11q2 -12 12 -12v23h-12zM682 1083 v-12h6v12h-6zM188 1077v-12h11q0 12 -11 12zM165 1059v-5h23v5h-23zM624 1025v-6h12v6h-12zM618 1001v-6h18v6h-18zM205 984v-23l40 -6l-28 40q-12 -1 -12 -11zM176 961v-24h6v24h-6zM665 937v-6h12v6h-12zM613 885v-18h5v18h-5zM199 873v-11h12q12 0 12 11h-24zM258 798 l29 -18v41q0 12 -12 12q-17 -6 -17 -35zM246 827v-18h6v18h-6zM630 827v-6h17v6h-17zM566 769v-6q2 -12 12 -12v18h-12zM560 745v-11h12v11h-12zM304 734v-12h6v12h-6zM310 710v-11h6v11h-6zM293 664v-6q1 -12 11 -12v18h-11zM543 652v-11h6v11h-6zM252 635v-6h23v6h-23z M514 629v-12q6 0 17 -6v18h-17zM345 582q7 0 41 -52q19 12 35 12v23l-12 -6h-6q-9 0 -23 23v41h-6q-29 -13 -29 -41zM310 617v-23q12 0 12 12q0 11 -12 11zM479 606v-24q2 -11 11 -11q0 4 6 35h-17zM293 600v-6h11v6h-11zM531 600v-6q9 -23 18 -23h11l-6 29h-23zM316 536 q35 0 35 -12q-12 -2 -12 -11l41 -24l6 -29l58 6h11v-17q-11 -15 -11 -24h-12q0 18 -11 18l-30 -6l-11 6q-38 0 -53 -35v-6l24 -6q8 23 17 23h6l12 -5q-24 -29 -24 -53q-8 0 -17 -17h23l23 17q12 -2 12 -11q-11 -6 -17 -6v-23l11 5h6l12 -5q0 5 6 5v-5q-18 -22 -30 -59h-17 l6 -11l-6 -12q0 -6 6 -17q-1 -26 -23 57v-17h11q9 0 29 -58h12l6 -23q-6 0 -6 104l23 -17l6 -87h12l5 69q-26 -11 -29 -23v-18h12q0 24 35 24v29l12 17q-14 -81 -18 -81l-29 -5q-6 8 -6 34h-11l-18 -11q-12 0 -12 11v24l6 11q53 -13 53 -35h5l6 24q0 10 -35 35q0 8 18 17h29 q0 6 12 47v5q-24 0 -24 18q6 11 6 17q-12 0 -12 12l6 12q4 -6 41 -6l12 17l-41 35q-12 0 -12 12q0 43 18 46h17v-29h12l23 35h6l17 -11h6v11l-6 12l-29 -6h-46q-12 0 -12 17h-17q-22 -58 -35 -58q-21 0 -70 64q-29 -7 -29 -17zM269 536v-6q0 -8 18 -17h6q0 10 17 29h-12z M304 495q16 -41 23 -41h24q11 0 11 12q0 9 -35 29h-23zM263 489v-6h12v6h-12zM514 460q5 -7 5 -41q14 12 41 12v29q0 12 -17 12q-19 -12 -29 -12zM438 460v-11h6v11h-6zM293 431v-6h11v6h-11zM549 408v-12h5v12h-5zM490 390v-5h12v5h-12zM519 367q2 -12 12 -12q12 0 12 12 v18h-6q-8 0 -18 -18zM438 355h17v-11q0 -12 -11 -12h-18v12q2 11 12 11zM327 297l41 -29q0 24 6 47l-17 11h-12q-13 0 -18 -29zM485 315q0 -24 -6 -24q11 -18 11 -29h6v12l-6 41h-5zM310 251q0 -9 17 -18h12q0 13 6 24l-12 5h-11q-12 -1 -12 -11zM502 251q6 0 6 -6 q-11 -6 -18 -6v-6q29 0 29 -11q12 5 18 5v12q0 9 -23 23q-12 -1 -12 -11zM461 210h35v12h-23q-12 -2 -12 -12zM386 262v-29h11v29h-11zM327 221v-17h6v17h-6zM514 209q1 -11 11 -11h6v11h-17zM409 204l-6 -12h18q0 12 -12 12zM368 198v-6q6 -11 6 -17h6v23h-12zM426 180v-5 l12 -18v-6q0 -11 -17 -11v-18h29q0 18 40 18v5q-23 0 -23 35h-41z" />
<glyph unicode="w" horiz-adv-x="1400" d="M168 1380q116 0 116 -163q6 -2 110 -597h6q81 257 81 394q10 10 64 325q38 35 93 35q107 -6 156 -6q64 -19 64 -93q116 -634 116 -655q-6 0 -6 -6h35v6q-23 0 -23 12q25 0 64 249q0 66 46 203l-6 35q31 216 52 232q33 22 128 29q122 -19 122 -52q-203 -1172 -238 -1299 q-25 -23 -47 -23h-214q-67 0 -75 197q-53 229 -76 371l6 35l-41 127q0 47 -17 47q-129 -760 -145 -760q-22 -17 -52 -17h-220q-45 0 -64 208q-35 143 -70 389q-29 110 -40 191l6 12q-35 141 -99 498q0 76 168 76zM672 1246v-11h6v11h-6zM690 1229v-6h11v6h-11zM678 1206v-23 q29 0 29 -18q12 0 12 29q-22 0 -35 12h-6zM1229 1200v-12h6v12h-6zM730 1194v-6h12v6h-12zM122 1148q2 -12 11 -12q0 27 12 41v6h-6q-17 -6 -17 -35zM1275 1171v-29q10 0 18 29h-18zM197 1130v-40h12l-6 40h-6zM748 1130q0 -11 -23 -29v-5q1 -12 11 -12q12 0 23 41z M684 1119q0 -35 -12 -35h-5q-12 0 -12 17q-22 -17 -35 -17v-23h24l17 11q8 0 17 -17q-17 -33 -69 -52q-6 0 -6 -6h46l18 12h11v-12q-23 -26 -23 -29q11 -6 17 -6v-11q-13 0 -23 -6l-5 12l-12 -6l-12 6l-5 -12v-12h5l12 6q11 -6 17 -6v-17q0 -12 -11 -12l6 -11v-29 q9 0 23 -12h11q0 18 29 23q-6 24 -23 24v11q14 0 46 23h6l18 -11h5l29 6v17q0 12 -11 12q-11 -6 -18 -6q0 6 -69 46l35 29v29q-18 0 -18 12l6 29q-14 0 -17 23h-12zM597 1101v-11h6v11h-6zM783 1067v-6q1 -12 11 -12l6 12q-6 11 -6 17q-11 -2 -11 -11zM203 1055 q2 -12 12 -12h5v12h-17zM609 1049v-6h23v6h-23zM1183 1032v-6h17v6h-17zM759 1026v-17h24q11 0 11 11l-11 6h-24zM162 1014v-5h12v5h-12zM220 1014v-5h12v5h-12zM186 986q1 -12 11 -12v12h-11zM609 916h11v12q-11 -2 -11 -12zM783 910l23 -29v-6q0 -11 -12 -11h-6 q-11 0 -11 11q6 0 6 6q-47 18 -53 18l-5 -12q11 -2 11 -12v-5q0 -24 -29 -47h29l12 6l6 -12l-12 -17v-17l6 -12q23 0 29 41h11v5q0 9 -17 18q9 23 17 23l35 -6l6 35q-1 13 -35 35q-11 -2 -11 -12zM609 904v-5h23v5h-23zM557 887q0 -13 29 -17v17h-29zM597 875v-17h18 q-6 11 -6 17h-12zM1188 858v-6h12v6h-12zM568 841v-12q12 0 12 12h-12zM632 829v-17h6q23 8 23 17v6zM615 806q0 -10 -12 -29h29v29h-17zM1148 794v-23h6v23h-6zM186 765v-6h11v6h-11zM748 754v-24h6v24h-6zM533 730v-17q2 -12 12 -12h6l6 29h-24zM858 725v-18h12v6 q0 12 -12 12zM794 719v-23h18v23h-18zM1101 707v-6q9 0 18 18h-6q-12 -2 -12 -12zM301 696v-18q2 -11 12 -11h12v23q-13 0 -24 6zM278 643l12 -5h11v5q0 12 -11 12q-12 -2 -12 -12zM945 655v-12h6v12h-6zM452 638v-12h12l29 6q0 11 -12 11zM1136 643v-11h6v11h-6zM1049 620 l-11 -34l11 -6q12 6 18 6v23q0 11 -12 11h-6zM261 603q11 -14 11 -23h6q13 0 18 29l-12 5h-12q-11 -1 -11 -11zM933 591q0 -8 -40 -52q11 0 11 -29h12q21 18 41 58q-12 0 -12 23h-12zM1090 591v-5h11v5h-11zM336 586l6 -12v-12q0 -11 -17 -11v-18l11 6h6q12 0 17 -52 q-36 0 -52 -29q31 0 52 -35v-29h35q0 6 -6 6l6 29l-23 64q11 6 17 6q34 -18 58 -18q-24 52 -34 52q-18 0 -18 41h-46v12h-12zM441 586l-12 -18q17 -19 17 -29h6q0 18 18 18q-6 9 -6 29l-12 -6zM1009 562l-12 6h-11q-20 -14 -29 -46q5 0 5 -6q-41 -24 -63 -46l11 -41 q-6 0 -6 -6q19 -11 29 -11q-11 23 -11 34l17 12h12q11 -2 11 -12l-17 -23l17 -11h12q0 30 17 34q53 -14 53 -34q-12 0 -12 -18h-12l-17 12h-6q-11 -2 -11 -12q0 -13 5 -23l-17 -29q2 -12 12 -12q0 6 5 6l6 -11v-47h-11l-12 6l-6 -12v-11q0 -13 6 -23q-6 -24 -29 -58 q34 -14 75 -52q0 11 35 11v6q-12 17 -58 35v23q47 41 47 110q-12 0 -12 12v11q9 23 35 23q-6 44 -18 58q0 5 29 76q-14 0 -29 11h-11q0 -34 -12 -34l-23 17q0 -12 -12 -12h-23q-11 0 -11 12l11 23q-6 0 -6 6h6q6 0 6 -6l12 6l11 -6v18h-11v17h34l6 29h-6q-11 -2 -11 -12z M1078 539q-5 0 -34 23v-29q11 0 29 -23q11 6 17 6q0 -6 6 -6q0 5 34 35q-11 26 -23 29zM307 557v-6h12v6h-12zM823 551v-12h6v12h-6zM458 545v-23q2 -12 12 -12h11v6l-6 29h-17zM301 539q0 -9 -29 -35q2 -11 12 -11h12q17 6 17 35v11h-12zM1038 522v-12h6v12h-6zM893 499v-6 h11v6h-11zM1096 493v-12h5v12h-5zM470 481q7 -35 17 -35h17l6 29q-14 12 -23 12q-11 -6 -17 -6zM1130 487v-12q2 -11 12 -11h6v11q0 12 -12 12h-6zM255 475v-11h6v11h-6zM516 452v-6h12v6h-12zM974 458h12q0 -12 -12 -12v12zM1067 452v-6h11v6h-11zM429 446q0 -11 -23 -34 q0 -12 17 -12v-6q0 -11 -11 -11h-29q0 -9 -12 -24l12 -5h29v-18q0 -11 -12 -11h-6q-11 0 -11 17q-9 0 -18 -17q6 -12 6 -18h-29q-8 0 -29 -29l12 -6h5l41 29l41 -5l-6 11l17 12l18 -23l-6 -12q6 0 6 -6l-18 -11q0 8 -17 17h-18q0 -6 -5 -17q8 0 17 -18q-1 -10 -29 -46v-17 q23 -18 23 -29h12l-6 57l12 6h5l24 -23q1 12 11 12l-6 29v17q14 41 29 41v5q-8 24 -29 24v5h12v18l-12 -6h-5l-6 23q25 5 46 52v6q-11 0 -35 23h-17zM522 435v-18q11 0 11 12zM1096 435v-6h11v6h-11zM313 429v-23q12 0 12 11q0 12 -12 12zM325 388v-5h17v5h-17zM916 383v-6 q2 -12 12 -12h11v18h-23zM284 365l23 -11l6 11v12h-17q-12 -2 -12 -12zM325 377v-12h11q0 12 -11 12zM957 359v-11h5v11h-5zM1084 359v-5h12v5h-12zM980 325v-12h6v12h-6zM1084 325v-18h6v18h-6zM933 307v-23q2 -12 12 -12h17v18q0 13 -29 17zM1084 290q9 0 23 -12l12 18v5 h-23q-12 -1 -12 -11zM1055 243l18 -11v29q-9 0 -18 -18zM319 249v-11h6v11h-6zM330 243q9 -23 18 -23h6q-12 14 -12 23h-12zM928 243v-17h11v6q0 11 -11 11zM290 220h11v12q-11 -2 -11 -12zM1020 214v-5q18 0 35 -23l6 11v6q0 11 -12 11h-29zM475 209l-5 -12l11 -6h12 q0 9 -18 18zM429 162v-5q2 -12 12 -12h5q12 0 12 12v17h-17q-12 -2 -12 -12zM365 139v-6h12v6h-12z" />
<glyph unicode="x" horiz-adv-x="804" d="M109 1374h75q145 0 145 -99q23 -54 64 -197q10 3 58 105q43 191 116 191q72 -6 81 -6l58 6q43 -12 58 -41v-5q-24 -90 -221 -638q215 -586 221 -626q-14 -58 -58 -58h-163q-55 0 -75 116q0 63 -58 156q0 29 -17 29q-79 -301 -122 -301h-180q-52 9 -52 52q0 14 46 116 q0 53 76 209q0 20 87 278v35q0 41 -145 440q-58 156 -58 174v12q8 52 64 52zM207 1235v-6h12v6h-12zM601 1194v-6q2 -11 12 -11h12v6q-12 14 -12 23q-12 -2 -12 -12zM567 1165v-17h5v17h-5zM242 1159v-11q12 0 12 11h-12zM578 1148l-6 -12l24 -6v12q-7 0 -18 6zM236 1142v-6 h12v6h-12zM590 1125v-12h6v12h-6zM543 1107v-6h12v18q-12 -2 -12 -12zM294 1072l12 -5q11 0 11 11v6h-11q-12 -2 -12 -12zM497 1078v-11h6v11h-6zM282 1061v-12h6v12h-6zM439 1061q-12 -31 -12 -35q6 0 6 -6q29 6 29 35l-11 6h-12zM352 1049q0 -13 -17 -35v-5q29 4 29 40 h-12zM468 997v-6q2 -11 12 -11l-6 -12v-6h11q0 14 41 64v12h-23q-24 -41 -35 -41zM393 1020q0 -29 -12 -29h-12l-17 12q-11 -6 -17 -6v-11q11 0 11 -6l12 6h6v-18q-16 -29 -24 -29l18 -29l29 6l17 -12q0 22 47 41q-28 41 -35 41q0 -6 -6 -6q-6 40 -17 40zM294 962 q6 -10 6 -23h11v23h-17zM497 962v-11h6v11h-6zM526 928v-12h12v23q-12 -2 -12 -11zM456 933v-5q2 -12 12 -12l6 12l-12 5h-6zM427 904v-23q4 -35 18 -35h6q11 0 11 12v23q-17 19 -17 29q-11 -6 -18 -6zM335 904v-5q5 -12 5 -18h6l6 23h-17zM375 875v-29q18 -15 18 -46 q14 12 23 12v34q-18 19 -18 29h-23zM462 841v-12q12 0 12 12h-12zM427 835v-12h6v12h-6zM462 823v-11h6v11h-6zM427 794v-17q2 -12 12 -12h6q0 12 23 29q0 12 -12 12h-5q-15 -12 -24 -12zM358 736q20 -35 29 -35q0 4 23 29v6q0 10 -29 18q-23 -9 -23 -18zM433 725v-6 q15 -29 23 -29q24 9 24 17v18h-47zM358 690h17v11h-6q-11 -1 -11 -11zM410 684v-12h6v12h-6zM393 661v-12h11v23q-11 -1 -11 -11zM352 649q2 -11 12 -11q14 11 23 11q0 12 -12 12h-11q-12 -2 -12 -12zM427 591h6q15 29 23 29v29h-11q-12 0 -18 -58zM375 597q6 -11 6 -17h17 v29h-11q-12 -2 -12 -12zM364 533v-11l5 -29q-34 -4 -34 -64q-6 0 -6 -6q17 0 17 -23h6l12 6l-6 11q9 24 40 24h6l12 -6l6 11v29h11v6h-11q0 -6 -6 -6q0 18 -23 18q-12 0 -12 11q6 0 58 58q-6 10 -6 24q-9 0 -46 -53h-23zM445 557v-18h6v18h-6zM456 528v-6q9 -23 18 -23 l11 17q0 12 -11 12h-18zM329 510l-6 -11q2 -12 12 -12q11 0 11 12zM306 487v-23h5v23h-5zM439 481v-6h12v6h-12zM462 481q-11 -40 -29 -40v-6q18 0 18 -12l-29 6h-6q-9 0 -18 -17l12 -18v-6q0 -11 -12 -11q-10 6 -23 6q0 -13 -6 -24q42 0 64 -17q2 12 12 12h6q3 0 17 -12h17 v17q0 12 -11 12h-12l-17 -12q-9 0 -18 18v17q10 0 35 12q10 -6 23 -6h6q12 0 12 12v23h-23l-18 -12h-6v12q18 21 18 40zM497 481q2 -11 12 -11h5q0 11 -11 11h-6zM369 475q12 -1 12 -11v-6q0 -12 -12 -12h-11v18q2 11 11 11zM329 412q0 -18 -23 -18v-6q17 0 17 -11v-6 l-23 -23q0 -11 46 -35l12 17q-8 0 -18 18l12 17q-17 34 -17 47h-6zM259 406q0 -6 -5 -18h5q15 12 29 12v6h-29zM509 377q7 -47 23 -47h29v6q-29 0 -29 18l6 29h-6q-21 -6 -23 -6zM364 348v-6h11v6h-11zM254 336v-6h28v6h-28zM520 301v-17h6v17h-6zM514 278v-11h6v11h-6z M259 261l18 -12q11 0 11 12q0 11 -11 11h-6q-12 -1 -12 -11zM584 255v-17h17q0 8 -17 17zM254 214v-11h5v11h-5zM607 168h18v18q-9 0 -18 -18zM590 133v-17q11 0 11 12v5h-11z" />
<glyph unicode="y" d="M181 1376q21 -12 52 -12l12 6l12 -6l34 6q70 -13 70 -58v-952q19 -92 75 -92h35q63 0 76 87v162q0 41 -6 47q6 39 6 63v70q0 192 -6 389q6 71 6 162q0 5 -6 35q16 93 75 93h12q28 0 58 -6q3 0 23 6q93 -7 93 -64v-1462q0 -251 -255 -348q-44 -12 -81 -12h-41 q-203 0 -308 238q-17 43 -17 110q0 58 128 58h52q87 0 87 -87q43 -64 81 -64q99 11 99 99v46q0 59 -18 122q-70 -7 -81 -11q-226 0 -325 232q-17 28 -17 87v64l-6 34q6 12 6 18q0 23 -6 104q6 79 6 111q0 6 -6 17l6 29q0 39 -6 180q0 9 6 70q-6 33 -6 92q0 7 6 18l-6 29 q6 153 6 180l-6 40q0 51 81 70zM657 1202v-6h17v6h-17zM245 1092v-12h6q11 0 11 12h-17zM645 1086v-6h12v6h-12zM204 1045v-6h12v6h-12zM674 1034q0 -15 -11 -29h17v29h-6zM228 1010v-5h11v5h-11zM233 912l-11 -18l11 -5h12v11q0 12 -12 12zM674 889v-6h12v6h-12zM692 825 v-6h29v6h-29zM692 813l-6 -12h17q0 12 -11 12zM228 801l-6 -11v-12h29q0 9 -23 23zM686 790v-6h17v6h-17zM657 767q9 -24 17 -24l6 29h-11zM228 709v-6q1 -12 11 -12h6v18h-17zM698 709v-12h23v6zM686 651v-12h6v12h-6zM698 627v-17h5v17h-5zM239 598v-11h6v11h-6zM663 471 q0 -6 -6 -18v-5h6q0 6 6 17v6h-6zM228 424v-11q5 -12 5 -18h12q-7 29 -17 29zM698 395l-6 -11v-18h6q11 0 11 12v6q0 11 -11 11zM268 320v-12h6v12h-6zM628 279h17v18q-8 0 -17 -18zM251 250l-12 -17l12 -6h6q11 0 11 12zM593 244v-11h6v11h-6zM634 227q0 -35 -18 -35 q9 -23 18 -23h17l6 29v6q-12 14 -12 23h-11zM599 221v-17h12v6q0 11 -12 11zM326 215v-17h12v17h-12zM291 198v-6h24v6h-24zM500 163v-6q2 -11 12 -11v17h-12zM553 146v-6h29l17 12h6q18 -25 46 -29q0 -10 23 -24h12q0 16 -29 58h-35q-6 0 -6 6q-63 -6 -63 -17zM500 117v-6 q2 -12 12 -12q11 6 17 6q0 12 -11 12h-18zM599 111v-6h17v6h-17zM547 105l-6 -11v-12h23q-9 23 -17 23zM587 59q2 -12 12 -12v12h-12zM645 59l-5 -12q7 -27 23 -29q8 23 17 23q0 -6 6 -6l6 12v6q-15 0 -47 6zM651 -17v-6q2 -11 12 -11v17h-12zM651 -144v-18h12v6 q0 12 -12 12zM628 -191v-11h23v5zM297 -272q2 -12 12 -12h6v12h-18zM315 -289q0 -9 17 -18h12v18h-29zM245 -301v-12h12q0 12 -12 12zM384 -301q0 -19 -6 -29h12l12 6q-9 23 -18 23zM518 -307v-11h6v11h-6zM291 -318v-6h12v6h-12zM518 -324v-12h6v12h-6zM524 -342 q0 -8 29 -29v18q0 11 -12 11h-17zM564 -371l-6 -11h18q0 11 -12 11z" />
<glyph unicode="z" horiz-adv-x="845" d="M332 1374q79 -6 98 -6q9 0 93 6q88 -6 163 -6q2 0 23 6q63 -17 63 -58v-151q0 -16 -394 -887l128 -23q39 6 64 6h75l35 6q92 0 92 -58v-145q-11 -58 -57 -58h-586q-58 0 -58 81q0 5 6 46l-6 12q0 93 87 243q0 29 122 273q96 243 127 278q0 28 35 104q12 47 12 58v6h-313 q-70 0 -70 81v47q0 133 58 133h23q73 0 180 6zM471 1264l-6 -12h18q0 12 -12 12zM564 1252v-17q11 0 11 11v18q-11 -2 -11 -12zM512 1241v-6h23v17h-12q-11 -2 -11 -11zM604 1241v-12l29 6v11zM541 1212q17 -27 17 -35h41v11q-16 0 -47 29zM506 1212v-12h6v12h-6zM257 1206 v-6h11v6h-11zM633 1200l-5 -12q1 -11 11 -11q12 0 12 11v6q-6 0 -18 6zM483 1177v-12l46 -35h17q0 24 18 24q0 16 -58 23q0 11 -12 11q-11 -1 -11 -11zM651 1159l-6 -11v-6h29q0 9 -23 17zM575 1142v-23q12 6 18 6v5q0 12 -12 12h-6zM599 1130q1 -11 11 -11h6v11h-17z M622 1125v-6h17v6h-17zM546 1096v-12l24 -6l5 12l-11 6h-18zM604 1061v-18h6v18h-6zM564 1026q2 -12 11 -12h12v24h-12q-11 -2 -11 -12zM500 980v-23q8 0 17 17v12q-11 -6 -17 -6zM535 968q6 -9 6 -29h5q0 15 12 29h-23zM541 933v-11h5v11h-5zM506 899v-6h11v6h-11zM488 788 v-17q12 0 12 12v5h-12zM430 748v-6h12v6h-12zM448 742v-12q2 -11 11 -11q29 7 29 17v6h-40zM425 672v-5h11v17q-11 -2 -11 -12zM442 638v-12h6v12h-6zM286 388v-5q1 -12 11 -12v17h-11zM268 301l12 6h6l28 -6q12 19 12 35l-12 6h-5q-41 0 -41 -41zM222 296q11 -14 11 -24h6 v24h-17zM228 249v-23l23 23h6q29 -23 40 -23q11 6 17 6v6q-23 17 -23 34h-11q-52 -16 -52 -23zM332 255v-12h6v12h-6zM338 226q7 -87 23 -87l17 23l-23 24v40h-17zM268 214v-5h12v5h-12zM175 197v-6h24v6h-24zM245 191v-5h23v5h-23zM291 174q2 -12 12 -12l11 18v6h-11 q-12 -2 -12 -12zM471 168v-23h17v12q-11 0 -11 11h-6zM193 162q2 -11 11 -11v11h-11zM558 157v-6h12v6h-12zM320 145v-6l23 -6v12h-23zM199 133v-23q11 0 11 12q0 11 -11 11zM483 128v-6h17v6h-17zM396 116q1 -12 11 -12v12h-11zM442 110q0 -8 17 -17h6q12 0 12 11v12h-6z M558 116v-12h6v12h-6zM529 87h6q11 0 11 12v11q-8 0 -17 -23z" />
<glyph unicode="{" horiz-adv-x="720" d="M569 1809q58 0 64 -69v-47q0 -69 -87 -87q-64 -37 -64 -157v-406q0 -135 -110 -250q110 -106 110 -244v-401q0 -149 93 -185q58 -20 58 -58v-53q-7 -75 -58 -75h-35q-198 0 -302 238q-11 51 -11 70q0 24 6 46q-12 129 -12 157q6 151 6 203q0 148 -52 174 q-105 37 -105 134q0 58 122 128q41 48 41 220q-6 29 -12 29l6 29v174q0 21 6 53q-6 7 -6 40q0 150 151 273q0 27 191 64zM384 1548v-12h5v12h-5zM360 1182v-6h12v6h-12zM378 1060h11v12q-11 -2 -11 -12zM308 1054v-11h6v11h-6zM279 961v-11h6v11h-6zM279 892v-29h6v29h-6z M349 892v-12h6v12h-6zM262 839l23 -17q0 6 6 6q-6 10 -6 23h-12q-11 -2 -11 -12zM262 805v-6h11v6h-11zM262 781v-5h11v5h-11zM262 764v-6h17v6h-17zM314 567v-12h6v12h-6zM337 543v-11h6v11h-6zM372 474v-12h6v12h-6zM320 468v-12h5v12h-5zM325 416v-18h6v18h-6zM384 410 v-18h5q12 0 12 12v6h-17zM314 392v-5h17v5h-17zM331 375v-12h29v12h-29zM349 317v-12q11 0 11 12h-11zM343 224v-6h12v6h-12zM430 -72v-12h6v12h-6z" />
<glyph unicode="|" horiz-adv-x="471" d="M199 1897q6 0 17 -6q49 6 81 6q70 -14 70 -59v-1036l6 -397l-10 -291l4 -349q-6 -70 -58 -70h-168q-35 26 -35 76v41q0 87 6 145q-6 42 -6 110q0 37 6 76l-6 58q6 171 6 226q0 5 -6 47q6 9 6 29q0 11 -6 11l6 41l-3 71l3 321l-3 225l3 167q0 37 -6 87q6 23 6 47t-6 64 q0 7 6 58q-6 109 -6 185l-6 12q0 91 99 105zM239 1647v-18h6v18h-6zM286 1566v-12h17q0 12 -11 12h-6zM216 1548l12 -6l6 12v6h-6q-12 -2 -12 -12zM245 555q2 -12 12 -12v23q-12 -1 -12 -11zM297 439v-6h12v6h-12zM239 433v-6h12v6h-12zM210 392q2 -11 12 -11l6 11h-18z M257 282h6q11 0 11 12v17q-13 0 -17 -29zM222 201q2 -12 12 -12v12h-12zM251 177v-5q2 -12 12 -12v17h-12zM205 32v-6h11v6h-11zM286 -107v-12h6v12h-6z" />
<glyph unicode="}" horiz-adv-x="720" d="M134 -223q-58 0 -64 69v47q0 69 87 87q64 37 64 157v406q0 135 110 250q-110 106 -110 244v401q0 149 -93 185q-58 20 -58 58v53q7 75 58 75h35q198 0 302 -238q11 -51 11 -70q0 -24 -5 -46q11 -129 11 -157q-6 -151 -6 -203q0 -148 53 -174q104 -37 104 -134 q0 -58 -122 -128q-40 -48 -40 -220q5 -29 11 -29l-6 -29v-174q0 -21 -5 -53q5 -7 5 -40q0 -150 -151 -273q0 -27 -191 -64zM320 38v12h-6v-12h6zM343 404v6h-12v-6h12zM325 526h-11v-12q11 2 11 12zM395 532v11h-6v-11h6zM424 625v11h-6v-11h6zM424 694v29h-6v-29h6z M355 694v12h-6v-12h6zM442 747l-24 17q0 -6 -5 -6q5 -10 5 -23h12q12 2 12 12zM442 781v6h-12v-6h12zM442 805v5h-12v-5h12zM442 822v6h-18v-6h18zM389 1019v12h-5v-12h5zM366 1043v11h-6v-11h6zM331 1112v12h-6v-12h6zM384 1118v12h-6v-12h6zM378 1170v18h-6v-18h6z M320 1176v18h-6q-12 0 -12 -12v-6h18zM389 1194v5h-17v-5h17zM372 1211v12h-29v-12h29zM355 1269v12q-12 0 -12 -12h12zM360 1362v6h-11v-6h11zM273 1658v12h-6v-12h6z" />
<glyph unicode="~" horiz-adv-x="771" d="M560 872q135 -25 135 -81v-139q0 -33 -45 -58h-32q-84 29 -104 29h-6q-215 -41 -265 -41q-168 0 -168 105q0 75 -6 75q13 105 77 105q107 -41 149 -41l13 6q11 -6 26 -6q0 31 226 46zM495 756q2 -11 13 -11l6 11h-19zM360 750v-11q2 -12 12 -12h20v6q0 13 -32 17z M282 733v-12h13q0 12 -13 12zM301 733v-12h7v12h-7z" />
<glyph unicode="&#xa1;" horiz-adv-x="478" d="M287 -358q-11 0 -11 6l-59 -6h-52q-76 7 -76 58v576q29 576 59 576q22 17 52 17h52q70 0 70 -157q23 -242 23 -296v-12q0 -29 12 -29q0 -45 -6 -163q6 -364 6 -454q0 -83 -41 -105q-19 -11 -29 -11zM223 -160v5h-17v-5h17zM177 -160v11h-6v-11h6zM258 -137v6q-6 11 -6 17 h-6v-23h12zM246 -15v6h-17v-6h17zM276 20v12h-12v-12h12zM200 84v6h-12v-6h12zM171 142v12q-12 0 -12 -12h12zM212 200v12h-30v-12h30zM264 259q-2 11 -12 11h-6v-11h18zM252 276v6h-11v-6h11zM188 328v12h-6v-12h6zM212 357v6h-12v-6h12zM194 451v5h-12v-5h12zM246 974 q-19 0 -29 6l-35 -6h-17q-76 15 -76 70v116q8 76 59 76h168q18 0 41 -76v-58q0 -128 -70 -128h-41z" />
<glyph unicode="&#xa2;" horiz-adv-x="910" d="M394 1587q89 -6 124 -6l12 6q58 -19 58 -65v-106q30 -14 153 -117q71 -101 71 -206v-159q0 -33 -41 -59h-183q-35 0 -35 130q0 164 -106 164h-12q-59 0 -70 -82v-759q0 -39 65 -88h35q82 19 82 117q6 8 6 42q-6 50 -6 76q0 37 71 65q6 0 6 -6l123 12q65 -18 65 -59v-141 q0 -228 -224 -347v-100q-5 -71 -58 -71h-165q-41 31 -41 65q5 32 5 53q0 60 -100 106q-129 123 -129 288q6 197 6 265q0 29 -6 88l12 176q-6 65 -12 259q12 74 71 165q62 68 153 129v94q14 71 70 71zM418 1363h12q35 14 35 18q-6 11 -6 18q-41 0 -41 -36zM459 1352l-12 6h-6 v-18h6l12 6q6 -10 6 -24l29 47l-12 6h-5q-9 0 -18 -23zM388 1340v-6q0 -8 18 -18h12v6q0 10 -30 18zM447 1299v-6h12v6h-12zM353 1281v-6h12v18q-12 -2 -12 -12zM553 1252q2 -12 12 -12l6 23h-6q-12 -1 -12 -11zM559 1222v-12q12 0 12 12v12q-12 -2 -12 -12zM630 1193 l17 -12q12 38 12 53q-29 -9 -29 -41zM294 1175v-12h6q11 6 18 6v6h-24zM259 1152l12 -6h6v17h-6q-12 -1 -12 -11zM247 1116v-6q2 -11 12 -11h6v6q0 11 -12 11h-6zM694 1075v-6h6q12 0 12 12v6h-6q-12 -2 -12 -12zM630 1075v-6h11v6h-11zM647 1075v-6h18v6h-18zM229 1040v-12 h6v12h-6zM235 946v-18h6q12 0 12 12l-12 6h-6zM176 928v-12h6v12h-6zM200 905v-12h6v12h-6zM224 563v-17q0 -9 17 -18q12 0 12 12q-9 23 -18 23h-11zM200 505v-12q2 -12 12 -12v24h-12zM241 452v-12h12q0 12 -12 12zM200 363v-6h24v18q-15 -12 -24 -12zM712 328v-6 q2 -12 12 -12l6 12v6h-18zM206 310v-5h12v5h-12zM241 299v-6h12v6h-12zM635 287v-6q2 -12 12 -12h6q12 0 12 12zM271 216v-6q1 -11 11 -11q12 0 12 11v18h-12q-11 -2 -11 -12zM329 216v-11h6v11h-6zM571 205v-18q2 -12 12 -12h11v18q0 12 -11 12h-12zM406 187v-6h12v6h-12z M347 163h12q11 6 18 6v6h-18q-12 -2 -12 -12zM394 175q2 -12 12 -12h6q0 12 -12 12h-6zM329 169v-6h12v6h-12zM530 169v-17h11v17h-11zM482 152l12 -6v17q-12 -2 -12 -11zM312 146v-6h17v6h-17zM471 128l-6 -24l23 -17h6v23q0 9 -23 18zM400 116q2 -12 12 -12h12v12h-24z M541 104v-5h12v5h-12zM518 57h23l-6 12l12 18h-12q-13 0 -17 -30zM418 81v-12q16 0 35 -35q6 0 6 -6l12 6q11 -6 17 -6v-6l-6 -12h18v18q-38 24 -53 24v5l12 18v6h-41zM377 28q1 -12 11 -12h12v12h-23zM435 28v-12h12v12h-12zM477 -7v-6h11v6h-11z" />
<glyph unicode="&#xa3;" horiz-adv-x="914" d="M449 1594q232 0 337 -192q41 -71 41 -157q-9 -64 -76 -64h-110q-72 0 -94 111q-48 40 -81 40q-81 -15 -81 -75v-559q0 -13 -6 -23q6 -10 6 -23v-379q36 -17 110 -23q23 12 64 12h41q36 0 87 -6q22 6 52 6q73 0 88 -64v-134q-10 -64 -64 -64h-588q-64 14 -64 87v47 q0 66 12 157q0 59 -6 145q6 162 6 297q0 41 -12 111q12 40 12 69v233q0 32 -6 82q29 181 105 261q134 105 227 105zM565 1443q7 -29 17 -29h12l6 29v6h-23zM355 1437v-6h12v6h-12zM431 1437v-17h12v17h-12zM518 1431v-11h6v11h-6zM291 1385l12 -6q18 21 18 41v5 q-10 0 -30 -40zM489 1420q2 -12 12 -12h12v12h-24zM617 1396v-5h12v5h-12zM431 1385v-12h6v12h-6zM443 1385v-6h11v6h-11zM641 1373v-12h5v12h-5zM251 1292v-12h29q0 12 -12 12h-17zM251 1239v-17h23v11q-13 0 -23 6zM257 1094v-12h11v12h-11zM204 1059v-18h18v6 q0 12 -12 12h-6zM262 1012v-5h12v5h-12zM268 902v-6h18v6h-18zM248 855l41 -6l70 6q73 -6 87 -6q3 0 23 6l24 -6l69 6q70 -15 70 -58v-145q-8 -59 -58 -59h-431q-81 11 -81 64q12 30 12 41q-6 51 -6 87q0 62 163 70h17zM247 1364v-6h12v6h-12zM195 1346v-11h6v11h-6z M166 1323v-18q6 0 17 -5v23h-17zM259 1311v-6h23v6h-23zM259 1276v-11h17q0 11 -11 11h-6zM170 970q0 -6 -13 -53h13q68 17 68 40l-27 13h-41zM189 1230v-12h6v12h-6zM367 1224v-12h6v12h-6zM303 1207v-12h6v12h-6zM212 528v-17h6q11 6 18 6q0 11 -12 11h-12zM297 431v-12 h12v23q-12 -2 -12 -11zM198 390v-12h6v12h-6zM262 355v-12h12v12h-12zM245 262l46 -23h6v23q-17 0 -17 11l6 12h-6q-35 -12 -35 -23zM291 198h6q6 0 6 6l29 -6h23v6q-34 0 -34 29q-11 0 -30 -35zM233 227q0 -9 -11 -23l11 -6q12 0 12 11v18h-12zM321 186q0 -23 -18 -23 q0 8 -17 17l-6 -11q7 -29 17 -29h12q23 35 23 46h-11zM425 175l-11 -18l23 -17q12 0 12 11v6q0 9 -24 18zM373 140v-18h6q11 0 11 12v6h-17zM478 140v-24h17v24h-17zM606 128h11v12q-11 -2 -11 -12zM303 105v-6q2 -12 12 -12q0 14 40 18q0 11 -11 11h-18q-14 -11 -23 -11z " />
<glyph unicode="&#xa4;" horiz-adv-x="1158" d="M269 1338q32 0 104 -75h12l163 29h29q71 0 151 -29h47q77 75 110 75h12q45 0 151 -134v-17q0 -34 -93 -122q47 -101 47 -192q0 -70 -47 -198q93 -77 93 -122q0 -31 -151 -157h-35l-99 93q-100 -47 -203 -47q-89 0 -187 47q-77 -93 -116 -93q-49 0 -157 145q0 41 76 111 q5 10 5 23v17q-29 105 -34 210q0 14 34 139v24q-81 81 -81 122q42 87 140 151h29zM333 1175l-6 -11q7 -29 17 -29q0 4 18 17q-2 16 -29 23zM449 1146l12 -6h11v18h-11q-12 -2 -12 -12zM664 1146v-6h18v6h-18zM688 1146v-6h11v6h-11zM507 1140v-17h6v17h-6zM851 1140v-35 q31 -11 34 -11v17q-9 0 -34 29zM321 1105v-5l29 -6q12 14 12 23q-6 11 -6 18q-35 -22 -35 -30zM251 1111q24 -33 24 -40l-6 -41q36 46 46 46q0 -13 29 -17v12q-61 26 -81 52q-12 -2 -12 -12zM752 1111v-6l29 -5l6 11q0 12 -12 12h-12q-11 -2 -11 -12zM426 1105l-6 -11 q17 0 17 -18h24v18zM792 1105q0 -2 6 -23q-6 -11 -6 -17l12 -6q0 6 6 6q-6 23 -6 40h-12zM356 1071v-30h6q0 24 17 24l29 -18q6 12 6 18q-6 11 -6 17zM408 884v-5q27 -175 157 -175q0 -6 12 -6q105 0 157 128v64q-36 146 -169 146q-157 -32 -157 -152zM350 1012 q6 -29 29 -29v6l-6 29h-11zM775 1012v-17h12v6q0 11 -12 11zM286 995l12 -6l6 12v6h-6q-12 -2 -12 -12zM309 995v-6h12v6h-12zM833 995q6 -23 6 -41q10 6 29 6v12q-12 14 -12 23h-23zM880 960v-12q1 -11 11 -11h12v6q0 8 -18 17h-5zM321 937v-6q2 -12 12 -12h11q0 9 -17 18 h-6zM298 925l-6 -12v-11h17v11q0 12 -11 12zM851 844v-6q0 -9 17 -18l6 12v12h-23zM880 803v-12h5v12h-5zM880 785v-11h5v11h-5zM304 774v-12q11 0 11 12h-11zM339 751l-12 -18h23v6q0 12 -11 12zM862 739v-12h6v12h-6zM792 704v-17q29 -2 29 -18q-13 -12 -34 -12v-23 q1 -11 11 -11h6q23 34 29 34h6l17 -11q0 9 12 23v6q-20 0 -58 29h-18zM362 687h11v11q-11 -2 -11 -11zM321 675v-18q3 -12 29 -23v53h-17q-12 -2 -12 -12zM234 681v-6h11v6h-11zM734 640l12 -6l35 41q-6 0 -6 6q-41 0 -41 -41zM443 652v-12h12v12h-12zM577 634l-6 -11v-6h18 v6q0 11 -12 11zM688 617l11 -6q10 6 24 6v11h-24q-11 -1 -11 -11zM874 628v-5h11v5h-11zM542 617v-6h12v6h-12zM426 611v-6q6 0 17 -6l6 12h-23zM292 605v-6h17v6h-17zM606 605v-17q6 0 18 -6l5 11zM728 605v-12q12 0 12 12h-12zM368 593l-12 -17q12 0 12 -17h17v23z M315 570v-11h24q0 11 -12 11h-12zM874 547v-12h11q0 12 -11 12z" />
<glyph unicode="&#xa5;" horiz-adv-x="871" d="M120 1600q192 -12 192 -35q116 -390 116 -413q70 56 70 169q55 219 93 262q23 0 23 11l41 -6h17l35 6l12 -6q11 0 41 12q70 -13 70 -58q0 -22 -227 -751q186 0 186 -64v-151q0 -47 -64 -58h-157v-93l87 -24q55 6 105 6q8 0 29 -29v-169q-8 -58 -58 -58h-163v-93 q0 -51 -76 -58h-110q-57 0 -76 64l6 12q0 20 -18 75h-168q-26 0 -41 82v40q0 21 6 53q-6 11 -6 17q0 42 81 70q50 -6 82 -6h23q52 8 52 53l-29 58h-151q-46 0 -58 64v6q0 174 35 174q0 18 128 23q0 6 11 6v18q0 42 -209 715q0 76 70 76zM643 1396v-5q13 0 24 -6l5 23l-11 6 q-9 0 -18 -18zM248 1367q2 -11 11 -11q12 0 12 11h-23zM207 1338v-6h12v6h-12zM254 1286v-12q11 0 11 12h-11zM667 1286v-12h5q12 0 12 12h-17zM271 1228v-12h12v12h-12zM550 1158q2 -12 12 -12l6 12h-18zM318 1140v-5h11v5h-11zM417 1140v-17h5v17h-5zM300 1135v-12h12v12 h-12zM609 1135v-12h5v12h-5zM504 1117v-12q29 0 29 -46h6q0 17 17 17v18q-9 23 -41 23h-11zM312 1053v-17h23l-6 11l12 18l29 -6q23 9 23 17l-11 6h-29q-41 -22 -41 -29zM405 1059q2 -12 12 -12q34 23 34 29l-11 6h-12q-9 0 -23 -23zM382 1024v-35l29 -6q11 14 11 35h12 q8 0 17 -17v-12q-23 0 -23 -12q2 -11 12 -11h23v23h12q11 -2 11 -12v-11q-23 0 -23 -23l6 -30q-6 -11 -6 -17h6q66 29 70 47v5q0 10 -29 18l11 75h-6q-10 0 -64 -11l-23 11q-25 -17 -46 -17zM329 1030l-6 -12l30 -6v12zM562 983v-11h6v11h-6zM376 954l11 -6h24l-6 12l6 12 l-12 5h-6q-8 0 -17 -23zM486 954h6q12 -2 12 -11v-6q0 -12 -12 -12l-6 12h6l-6 11v6zM318 943v-12h5q12 0 12 12h-17zM370 890q17 0 17 -23q35 28 35 46l12 -5l23 29h-6q-27 0 -81 -47zM550 890v-11h6v11h-6zM405 855q6 -11 6 -17l-53 -29q0 -6 6 -18l-6 -23q6 -11 6 -17 q11 0 29 64h18v-12h-12v-18l6 -29q-29 -7 -29 -17q0 -8 29 -23q0 19 41 69l-12 18v6l29 46h6v6q-18 0 -47 23q-13 0 -17 -29zM492 879v-6h12v6h-12zM341 867l-6 -12l18 -11h17v5q0 14 -29 18zM486 855q-11 -37 -11 -40l6 -30l-6 -11q6 -10 6 -23v-6q0 -9 -18 -18 q18 -29 18 -46l-12 -6l-64 29v-6l6 -41l-12 -5q-8 0 -17 17q-64 -6 -64 -23v-12q4 0 35 6l29 -17q5 11 5 17h12l-6 -12q19 0 47 -40h11v29h30q8 0 17 -18q35 18 41 18q-29 20 -29 64q23 8 23 17l-6 12l-12 -6h-11q0 17 -12 17l12 18q-6 0 -6 6q12 0 12 11l-12 6l6 41v52h-18 zM527 780v-6h12v6h-12zM312 774v-18h6v18h-6zM440 739v-6q2 -12 11 -12h6v30h-6q-11 -2 -11 -12zM539 733v-23h11v35q-11 -2 -11 -12zM353 727l-6 -11q11 -15 11 -24q12 0 12 12v17q-6 0 -17 6zM579 698h24l6 23h-6q-9 0 -24 -23zM283 704l6 -29q-12 -2 -12 -12 q2 -11 12 -11q0 11 29 29v17q-11 6 -24 6h-11zM213 681v-6h12v6h-12zM574 652q0 -18 -6 -41h11q12 0 12 12v17q0 12 -12 12h-5zM550 617v-6h12v6h-12zM382 599v-11h11q0 11 -11 11zM486 593q0 -11 -23 -29l35 -11q-6 23 -6 40h-6zM539 576v-6h11v6h-11zM399 559v-12h6v12h-6 zM411 547v-12h17q12 0 12 12t-12 12h-6q-11 -2 -11 -12zM353 547q1 -12 11 -12v12h-11zM382 518q0 -9 23 -23v23h-23zM451 506v-17h6v17h-6zM434 465h12q11 0 11 12v6h-6q-8 0 -17 -18zM498 471v-11h6v11h-6zM382 425v-6q0 -9 23 -23q-6 -24 -23 -24v-5q4 0 35 -6 q40 49 40 70v5h-23l-23 -17q0 8 -18 17q-11 -1 -11 -11zM382 390v-6h11v6h-11zM446 355h5q0 -6 -5 -6q0 -37 35 -41q0 33 29 47l-18 12q0 -8 -29 -24h-6v6q6 11 6 18h-6q-11 -2 -11 -12zM259 343v-29h6v29h-6zM428 343v-17h6v17h-6zM527 332v-6h29v6h-29zM376 326v-6h11v6 h-11zM521 320v-17l35 5v6zM329 314v-6l29 -5v11h-29zM486 308v-5h29v5h-29zM370 303v-6q9 0 23 -12v18h-23zM387 262q9 0 18 -18q-6 0 -6 -5h6l17 11h6q12 -2 12 -11v-6l-6 -12l17 -12h6q18 0 18 53q-6 11 -6 17h-6l-12 -6q0 30 -11 30q-53 -30 -53 -41zM585 291 q2 -12 12 -12q11 6 17 6q0 12 -11 12q-12 -6 -18 -6zM481 273v-5q29 0 29 -35l29 -18q8 0 17 18q-26 11 -29 23q0 12 18 12v5q0 9 -18 18q-33 -18 -46 -18zM242 279v-11h6v11h-6zM277 279q2 -11 12 -11v11h-12zM341 279v-11l12 -18q0 -11 -18 -11v-6q12 0 12 -6l-6 -41 l12 -6q26 59 40 59v11q-33 0 -46 29h-6zM318 239v-6h11v6h-11zM399 186h41v6q0 12 -12 12h-11q-9 0 -18 -18zM469 175h35v17q0 12 -12 12h-6q-10 0 -17 -29z" />
<glyph unicode="&#xa6;" horiz-adv-x="471" d="M200 731q6 0 17 -3q49 3 81 3q70 -6 70 -26v-445l6 -171l-10 -125l4 -150q-6 -30 -58 -30h-168q-35 11 -35 33v17q0 38 6 63q-6 18 -6 47q0 16 6 32l-6 25q6 74 6 98q0 2 -6 20q6 4 6 12q0 5 -6 5l6 18l-3 30l3 138l-3 97l3 72q0 16 -6 37q6 10 6 20q0 11 -6 28q0 3 6 25 q-6 47 -6 79l-6 6q0 39 99 45zM240 623v-8h6v8h-6zM287 588v-5h17q0 5 -11 5h-6zM217 581l12 -3l6 5v3h-6q-12 -1 -12 -5zM246 154q2 -6 12 -6v10q-12 0 -12 -4zM298 104v-3h12v3h-12zM240 101v-2h12v2h-12zM211 84q2 -5 12 -5l6 5h-18zM258 36h6q11 0 11 5v8q-13 0 -17 -13 zM223 1q2 -5 12 -5v5h-12zM252 -9v-2q2 -5 12 -5v7h-12zM206 -71v-3h11v3h-11zM287 -131v-5h6v5h-6zM199 1659q6 0 17 -3q49 3 81 3q70 -6 70 -26v-445l6 -171l-10 -125l4 -150q-6 -30 -58 -30h-168q-35 11 -35 33v17q0 38 6 63q-6 18 -6 47q0 16 6 32l-6 25q6 74 6 98 q0 2 -6 20q6 4 6 12q0 5 -6 5l6 18l-3 30l3 138l-3 97l3 72q0 16 -6 37q6 10 6 20q0 11 -6 28q0 3 6 25q-6 47 -6 79l-6 6q0 39 99 45zM239 1551v-8h6v8h-6zM286 1516v-5h17q0 5 -11 5h-6zM216 1509l12 -3l6 5v3h-6q-12 -1 -12 -5zM245 1082q2 -6 12 -6v10q-12 0 -12 -4z M297 1032v-3h12v3h-12zM239 1029v-2h12v2h-12zM210 1012q2 -5 12 -5l6 5h-18zM257 964h6q11 0 11 5v8q-13 0 -17 -13zM222 929q2 -5 12 -5v5h-12zM251 919v-2q2 -5 12 -5v7h-12zM205 857v-3h11v3h-11zM286 797v-5h6v5h-6z" />
<glyph unicode="&#xa7;" horiz-adv-x="910" d="M467 1714h29q128 0 259 -153q59 -92 59 -188v-83q0 -64 -76 -64h-118q-48 0 -71 70l6 24q0 117 -100 129h-18q-59 0 -70 -82q0 -130 218 -271q229 -167 229 -400v-6q0 -126 -59 -218q59 -110 59 -223v-12q0 -241 -265 -341q-44 -12 -82 -12h-41q-205 0 -306 247 q-18 50 -18 65q0 6 6 18q-6 31 -6 52v42q0 54 76 64q7 0 18 -5l35 5q136 0 136 -64v-65q0 -65 82 -94h47q32 0 59 88q0 119 -200 253q-247 178 -247 383v17q0 113 41 241v12q-35 106 -47 171q6 32 6 47q0 6 -6 6q0 91 82 229q124 118 283 118zM490 1596v-23h24q8 0 18 17z M432 1590v-5h11v5h-11zM443 1555v-6h24v6h-24zM337 1543v-6h18v6h-18zM520 1532v-12h23v23h-11q-12 -1 -12 -11zM279 1508v-18h5q12 0 12 12v6h-17zM331 1496q6 -11 6 -17h12q-6 11 -6 17h-12zM643 1443q10 0 24 -11q0 9 12 23l-12 6h-6q-8 0 -18 -18zM237 1414v-18h6v18h-6 zM284 1402l12 -6h6q12 0 12 12v6h-18q-12 -2 -12 -12zM643 1408v-12h12q0 12 -12 12zM237 1361v-6h24v6h-24zM231 1337h12v12q-12 -2 -12 -12zM220 1314q7 -30 17 -30l6 12l-6 30h-6q-11 -2 -11 -12zM279 1279l5 -12l-5 -12h17l-6 12l6 12h-17zM237 1220v-12h12q0 12 -12 12 zM261 1214v-6h23v12h-5q-12 -6 -18 -6zM273 1196v-6h11v6h-11zM284 1173q2 -12 12 -12h6v23h-6q-12 -1 -12 -11zM237 1131h24q9 0 23 24h-5q-32 0 -42 -24zM320 1137l-18 -53h12q0 15 23 24q0 6 6 18l-17 11h-6zM355 1126v-6h12v6h-12zM273 1108v-6h17v6h-17zM349 1102v-29 h6v29h-6zM414 1061h-6l-12 6l-6 -12q6 -11 6 -18h6l18 12q0 -8 17 -18h6q12 0 12 12q-8 41 -23 41h-6q-12 0 -12 -23zM249 1079l-6 -24q12 -6 18 -6q11 6 18 6q11 -24 11 -41h18q12 0 12 12q0 10 -12 35q12 0 12 12h-12l-35 -6zM331 1079v-12h6v12h-6zM355 1055v-6h18 q11 0 11 12v6h-5q-15 -12 -24 -12zM302 984l6 -11q65 2 65 29q-20 12 -36 12q-21 -30 -35 -30zM255 1002v-12h6v12h-6zM420 1002v-6q16 -35 23 -35v41h-23zM502 978v-11q12 0 12 11h-12zM585 978v-17h5q12 0 12 12v5h-17zM226 967v-18h5v18h-5zM273 943q6 -11 6 -17h11 q18 5 18 35q-35 -6 -35 -18zM384 955q0 -6 -5 -18h11q0 7 6 18h-12zM367 926v-24q14 -102 112 -182q50 -30 58 -30l6 12v41q-32 101 -117 147q-11 0 -53 36h-6zM284 884v-11h6v11h-6zM573 884v-17h12v17h-12zM255 837q6 -10 6 -23h6q0 9 12 23h-24zM290 837v-6q6 -11 6 -17 h12v23h-18zM673 837v-6h12v6h-12zM231 802v-18q12 0 12 12v6h-12zM267 790v-6q0 -8 17 -17l6 11l-17 12h-6zM331 755v-6h12v6h-12zM679 749v-12q11 0 11 12h-11zM643 725q0 -13 6 -23v-18l18 -12q12 0 12 12q-6 33 -6 47zM685 708v-6h11v6h-11zM655 702h12v-6h-12v6z M685 690v-6h11v6h-11zM590 661v-6h12v6h-12zM596 643v-6h18v6h-18zM614 620q24 -12 35 -12q-7 29 -17 29q-9 0 -18 -17zM449 631v-11h6v11h-6zM396 625v-11q12 0 12 11h-12zM579 625v-11h6v11h-6zM573 608v-6h12v6h-12zM514 590v-12h6l29 6q0 9 -17 18h-6q-12 -2 -12 -12z M643 602v-18q22 0 36 -12v18zM561 561q0 6 -6 6v-6q0 -53 53 -53v-18l-6 -12l12 -6h12l6 30q-12 0 -12 12q0 35 35 35v12l-41 23q-49 -23 -53 -23zM496 531h18v12h-6q-12 -2 -12 -12zM679 531l-18 -23l12 -6h17v17q0 12 -11 12zM567 484v-17h18q-6 11 -6 17h-12zM590 455 q0 -12 -23 -36q0 -8 29 -23q0 35 18 35v12q-9 0 -24 12zM632 431v-12h5v12h-5zM679 402h23v17q-23 -8 -23 -17zM643 396v-12h12v12h-12zM626 261q2 -12 11 -12v12h-11zM279 196v-18h5q12 0 12 12l-12 6h-5zM696 178v-23h12v23h-12zM626 131v-6q11 -44 11 -53h6l6 30z M290 108v-6h12v6h-12zM373 102v-12h6v12h-6zM567 78l-6 -12l12 -5l6 11zM502 61v-12q1 -8 30 -24v18q-18 0 -18 18h-12zM355 49l-6 -12h41v6q-26 0 -35 6zM437 31v-12h6q12 0 12 12h-18zM508 -16h12v12q-12 -2 -12 -12z" />
<glyph unicode="&#xa8;" horiz-adv-x="700" d="M97 1786h116q44 0 75 -52v-151q0 -32 -40 -58h-175q-40 0 -40 75q-6 42 -6 105q9 81 70 81zM590 1786q64 -25 64 -35v-174q-7 -52 -52 -52h-174q-35 17 -35 93v58q0 104 81 104h93q13 0 23 6z" />
<glyph unicode="&#xa9;" horiz-adv-x="1754" d="M809 1594h17l35 -6q12 6 18 6q134 0 349 -87q164 -88 238 -180q198 -239 198 -501v-35q0 -449 -436 -704q-164 -87 -373 -87q-368 0 -628 320q-151 237 -151 471q-6 0 -6 12q0 257 221 541q221 202 390 215zM943 1478q2 -12 11 -12l6 12h-17zM681 1449h12v11 q-12 -1 -12 -11zM949 1460v-11h5v11h-5zM1053 1460v-5h12v5h-12zM861 1455v-6h12v6h-12zM727 1437v-6h12v6h-12zM908 1437v-6h11v6h-11zM1175 1437v-6h12v6h-12zM1024 1431v-23h18v6q0 8 -18 17zM1065 1385v-6q2 -12 12 -12h11q38 41 47 41v6q-18 0 -18 17q-13 0 -40 -46 h-12zM611 1425v-5h12v5h-12zM617 1385v-12h6v12h-6zM570 1367v-23h6v23h-6zM477 1350v-18q10 6 29 6v23q-14 -11 -29 -11zM1216 1356v-18h29v12zM338 820v-40q0 -286 296 -466q70 -35 198 -58q298 0 442 192q134 142 134 367q0 250 -267 442q-147 70 -239 70h-64 q-303 0 -471 -338q-29 -97 -29 -169zM1292 1321v-6h17v6h-17zM1338 1280v-12h12q12 0 12 12h-24zM367 1263v-12h6v12h-6zM844 1216h29q180 0 308 -169q29 -74 29 -93v-11q0 -47 -64 -59h-145q-25 0 -105 70q-23 6 -41 6q-75 -19 -75 -76v-157q0 -86 105 -99q9 0 87 64 q38 12 52 12h128q38 0 58 -41v-11q0 -112 -163 -233q-86 -46 -180 -52q-211 0 -314 209q-29 74 -29 99v151q0 214 116 303q0 43 204 87zM274 1169l17 -11l6 11v18h-6q-8 0 -17 -18zM1426 1164h11v11q-11 -2 -11 -11zM384 1169q2 -11 12 -11v11h-12zM1402 1146l12 -6h12v18 h-12q-12 -2 -12 -12zM1461 1146q1 -11 11 -11v23q-11 -2 -11 -12zM1426 1111q1 -11 11 -11q10 5 24 5v30h-6q-27 -12 -29 -24zM291 1094q2 -12 12 -12h6v23h-6q-12 -1 -12 -11zM1507 1082v-11h6v11h-6zM937 1065v-18h12v6q0 12 -12 12zM960 1065q2 -12 12 -12q11 0 11 12 h-23zM1024 1065v-18h6v18h-6zM250 1059l-5 -12v-11q13 0 23 -6v11q0 9 -18 18zM745 1059v-6q2 -12 12 -12v18h-12zM1472 1059l-6 -29h18v29h-12zM1007 1041v-5h11v5h-11zM821 1012h11v12q-11 -2 -11 -12zM791 1012v-5h18v5h-18zM716 989v-12h6v12h-6zM687 977v-11h17 q0 11 -11 11h-6zM210 960v-12q1 -11 11 -11v23h-11zM262 931v-6h17v6h-17zM221 861v-17h6v17h-6zM634 832v-6h12v6h-12zM1565 803v-23h12v11q0 12 -12 12zM233 774v-6q6 -11 6 -17h6q8 0 17 17v6h-29zM1507 739q6 -10 6 -23h12v5q-6 12 -6 18h-12zM652 687l-6 -12l12 -6h5v6 q0 12 -11 12zM175 657v-5q2 -12 11 -12h6q0 8 -17 17zM1513 634v-11h6v11h-6zM1525 634v-6h17v6h-17zM1472 623v-12h6q12 0 12 12h-18zM716 593l11 -5v17q-11 -2 -11 -12zM245 588l11 -6q12 0 12 11v6h-12q-11 -2 -11 -11zM1525 582v-12h5v12h-5zM1007 576v-12h6v12h-6z M1466 576v-17h6q12 0 12 11l-12 6h-6zM943 559q0 -9 17 -18l6 12v6q0 11 -12 11q-11 -2 -11 -11zM803 564v-17h12v17h-12zM274 559v-6h35v6h-35zM745 553v-24h6v24h-6zM885 524v-24h11q12 0 12 12v17h-6q-11 -5 -17 -5zM285 518v-6h12v6h-12zM1455 518v-12h6v12h-6z M1472 512q2 -12 12 -12v12h-12zM256 489l6 -12l-12 -17l24 -12q0 6 5 6l-5 35h-18zM1431 465v-5h24v23h-6q-8 0 -18 -18zM1385 442v-6h12v6h-12zM1426 431v-12q11 0 11 12v11q-11 -2 -11 -11zM1333 401v-11h5v11h-5zM355 372q15 0 29 -11v29h-11q-9 0 -18 -18zM314 367v-6 h12v6h-12zM1362 355v-23h5v23h-5zM442 326v-18h12v18h-12zM1309 291v-18q2 -11 12 -11l12 17v24h-12q-12 -2 -12 -12zM437 279v-6h11v6h-11zM460 268l-6 -12v-6h6q11 0 11 12zM570 262q6 -10 6 -23h6q0 13 6 23h-18zM518 256v-12h23v6zM518 233v-6h17v6h-17zM535 209v-17h6 v17h-6zM1129 204q2 -12 12 -12l5 12h-17zM1175 198q-11 -19 -11 -35h6q8 0 17 17v6q0 12 -12 12zM704 175h18v11h-6q-12 -2 -12 -11zM1059 186v-29q12 0 12 12v6q0 11 -12 11zM669 180l-6 -29l12 -6q12 0 12 12q-12 14 -12 23h-6zM914 180v-11q11 0 11 11h-11zM559 175v-12 q0 -8 17 -18q11 6 18 6v6q0 8 -18 18h-17zM1077 175v-6h11v6h-11zM879 163v-6h17v6h-17zM1018 134q2 -12 12 -12l6 12h-18z" />
</font>
</defs>
</svg>
