<?xml version="1.0" standalone="no"?>
<!DOCTYPE svg PUBLIC "-//W3C//DTD SVG 1.1//EN" "http://www.w3.org/Graphics/SVG/1.1/DTD/svg11.dtd" >
<svg>
<metadata>
Created by FontForge 20090622 at Fri Nov 20 05:11:30 2015
 By deploy user
Part of the digitally encoded machine readable outline data for producing the Typefaces provided is copyrighted &#194;&#169; 2007 Linotype GmbH, www.linotype.com. All rights reserved. This software is the property of Linotype GmbH, and may not be reproduced, used, displayed, modified, disclosed or transferred without the express written approval of Linotype GmbH.  Copyright &#194;&#169; 1991, 1992, 2002 Adobe Systems Incorporated. All Rights Reserved. PMN Caecilia is a trademark of Linotype GmbH and may be registered in certain jurisdictions. This typeface is original artwork of Peter Matthias Noordzij. The design may be protected in certain jurisdictions.
</metadata>
<defs>
<font id="PMNCaeciliaW01-55Roman" horiz-adv-x="314" >
  <font-face 
    font-family="PMNCaeciliaW01-55Roman"
    font-weight="400"
    font-stretch="normal"
    units-per-em="1000"
    panose-1="2 6 5 2 3 3 6 2 2 4"
    ascent="769"
    descent="-231"
    x-height="516"
    cap-height="700"
    bbox="-56 -270 1136 932"
    underline-thickness="50"
    underline-position="-50"
    unicode-range="U+000D-U+25FC"
  />
<missing-glyph horiz-adv-x="0" 
 />
    <glyph glyph-name=".notdef" horiz-adv-x="0" 
 />
    <glyph glyph-name="glyph1" horiz-adv-x="0" 
 />
    <glyph glyph-name="uni000D" unicode="&#xd;" horiz-adv-x="0" 
 />
    <glyph glyph-name="space" unicode=" " horiz-adv-x="278" 
 />
    <glyph glyph-name="exclam" unicode="!" 
d="M115 769h92l-10 -533h-72zM95 50q0 26 18 44t44 18t44 -18t18 -44t-18 -44t-44 -18t-44 18t-18 44z" />
    <glyph glyph-name="quotedbl" unicode="&#x22;" horiz-adv-x="444" 
d="M272 649q-2 17 -3 34.5t-1 41.5q0 23 9.5 37.5t36.5 14.5t36.5 -14.5t9.5 -37.5q0 -24 -1 -41.5t-3 -34.5l-12 -122q-1 -18 -6 -31t-24 -13t-23.5 13t-6.5 31zM88 649q-2 17 -3 34.5t-1 41.5q0 23 9.5 37.5t36.5 14.5t36.5 -14.5t9.5 -37.5q0 -24 -1 -41.5t-3 -34.5
l-12 -122q-1 -18 -6 -31t-24 -13t-23.5 13t-6.5 31z" />
    <glyph glyph-name="numbersign" unicode="#" horiz-adv-x="556" 
d="M206 279h113l31 142h-113zM174 421h-110v57h122l49 222h63l-49 -222h113l49 222h63l-49 -222h111v-57h-123l-31 -142h110v-57h-122l-49 -222h-63l49 222h-113l-49 -222h-63l49 222h-111v57h123z" />
    <glyph glyph-name="dollar" unicode="$" horiz-adv-x="556" 
d="M251 840h63v-128q16 0 40 -2.5t49 -6.5t48 -9.5t38 -11.5v-141h-74v85q-24 8 -50.5 13t-52.5 5l-2 -249q42 -11 81.5 -22.5t69.5 -32t48.5 -53.5t18.5 -86q0 -50 -18 -88t-48.5 -64t-70.5 -41.5t-85 -19.5v-128h-63v128q-15 0 -46 2.5t-64.5 7t-62.5 10.5t-41 13v155h82
v-97q30 -11 60 -16.5t72 -6.5l2 265q-53 10 -93.5 25t-68 37.5t-41.5 54t-14 74.5q0 46 18 83t49 63t71 40t85 14v128zM249 644q-11 0 -33.5 -4t-45 -17.5t-39.5 -38t-17 -64.5q0 -32 16 -52.5t38 -33.5t44.5 -19.5t34.5 -8.5zM306 59q18 1 41.5 8t44.5 22t35.5 40t14.5 62
q0 31 -12 51.5t-31 34t-43 21t-48 12.5z" />
    <glyph glyph-name="percent" unicode="%" horiz-adv-x="833" 
d="M205 382q-36 0 -66 12.5t-52 34t-34 52t-12 66.5t12 66.5t34 52t52 34t66 12.5q34 0 63 -12.5t50 -34t33 -52t12 -66.5t-12 -66.5t-33 -52t-50 -34t-63 -12.5zM202 445q22 0 38.5 8.5t27 22.5t16 32.5t5.5 38.5t-5.5 38.5t-16 32.5t-27 22.5t-38.5 8.5t-38.5 -8.5
t-27 -22.5t-16 -32.5t-5.5 -38.5t5.5 -38.5t16 -32.5t27 -22.5t38.5 -8.5zM631 -12q-36 0 -66 12.5t-52 34t-34 52t-12 66.5t12 66.5t34 52t52 34t66 12.5q34 0 63 -12.5t50 -34t33 -52t12 -66.5t-12 -66.5t-33 -52t-50 -34t-63 -12.5zM628 51q22 0 38.5 8.5t27 22.5
t16 32.5t5.5 38.5t-5.5 38.5t-16 32.5t-27 22.5t-38.5 8.5t-38.5 -8.5t-27 -22.5t-16 -32.5t-5.5 -38.5t5.5 -38.5t16 -32.5t27 -22.5t38.5 -8.5zM613 756l51 -34l-450 -778l-51 34z" />
    <glyph glyph-name="ampersand" unicode="&#x26;" horiz-adv-x="778" 
d="M282 432q25 16 45.5 31t35 30.5t22.5 33t8 40.5q0 41 -27 61.5t-65 20.5q-43 0 -71.5 -23t-28.5 -67q0 -20 8 -37.5t20 -33.5t26 -29.5zM265 346q-25 -16 -45.5 -31.5t-35 -33t-22.5 -38.5t-8 -48q0 -32 12.5 -57.5t35 -43.5t53.5 -28t68 -10q33 0 59.5 7.5t46 18.5
t33 23.5l22.5 21.5zM529 183q19 31 34.5 72t15.5 103h-77v63h224v-63h-79q0 -33 -6.5 -65t-17 -61t-23 -53.5t-24.5 -41.5l48 -43q21 -19 39 -26.5t33 -7.5q8 0 15.5 1l14.5 2v-63q-8 -1 -17.5 -2t-20.5 -1q-29 0 -49.5 6t-37.5 17.5t-33 27l-36 33.5q-48 -50 -101.5 -71.5
t-122.5 -21.5q-65 0 -110 19.5t-73 48.5t-40.5 62.5t-12.5 62.5q0 40 12 70.5t32 54.5t47.5 44l57.5 40q-28 28 -46.5 50.5t-29 42t-14.5 38t-4 38.5q0 8 3.5 33t20.5 51.5t52.5 47.5t100.5 21q34 0 64 -9t52 -27t34.5 -45t12.5 -64q0 -31 -13.5 -57t-34 -48t-45.5 -40.5
t-48 -33.5z" />
    <glyph glyph-name="quotesingle" unicode="'" horiz-adv-x="278" 
d="M97 649q-2 17 -3 34.5t-1 41.5q0 23 9.5 37.5t36.5 14.5t36.5 -14.5t9.5 -37.5q0 -24 -1 -41.5t-3 -34.5l-12 -122q-1 -18 -6 -31t-24 -13t-23.5 13t-6.5 31z" />
    <glyph glyph-name="parenleft" unicode="(" 
d="M310 750q-36 -45 -64 -105.5t-47 -127t-28.5 -133.5t-9.5 -125q0 -59 10.5 -126.5t30 -134t47 -126.5t61.5 -104l-57 -38q-45 63 -78 124t-55.5 125t-33.5 133t-11 147q0 77 11 145.5t33.5 132.5t55.5 126t78 125z" />
    <glyph glyph-name="parenright" unicode=")" 
d="M4 -232q36 45 64 105.5t47 127t28.5 133.5t9.5 125t-10.5 126t-30 134.5t-47 126.5t-61.5 104l57 38q45 -63 78 -124t55.5 -125t33.5 -133t11 -147q0 -77 -11 -145.5t-33.5 -132.5t-55.5 -126t-78 -125z" />
    <glyph glyph-name="asterisk" unicode="*" horiz-adv-x="351" 
d="M144 769h63l-12 -126l102 69l28 -51l-115 -48l115 -49l-28 -51l-102 67l12 -125h-63l14 125l-104 -67l-28 51l116 49l-116 48l28 51l104 -69z" />
    <glyph glyph-name="plus" unicode="+" horiz-adv-x="600" 
d="M266 219h-219v68h219v219h68v-219h219v-68h-219v-219h-68v219z" />
    <glyph glyph-name="comma" unicode="," horiz-adv-x="278" 
d="M68 -144l34 41q11 14 16.5 28t5.5 37q0 16 -5 25t-16 21q-12 14 -18.5 23.5t-6.5 26.5q0 24 16 39t41 15q38 0 56.5 -30t18.5 -69q0 -52 -18.5 -91.5t-55.5 -74.5l-30 -29z" />
    <glyph glyph-name="hyphen" unicode="-" horiz-adv-x="407" 
d="M74 311h259v-74h-259v74z" />
    <glyph glyph-name="period" unicode="." horiz-adv-x="278" 
d="M77 50q0 26 18 44t44 18t44 -18t18 -44t-18 -44t-44 -18t-44 18t-18 44z" />
    <glyph glyph-name="slash" unicode="/" horiz-adv-x="370" 
d="M299 777l63 -24l-327 -830l-63 24z" />
    <glyph glyph-name="zero" unicode="0" horiz-adv-x="556" 
d="M278 644q-51 0 -82 -31.5t-48 -77t-22.5 -96.5t-5.5 -89t5.5 -89t22.5 -96.5t48 -77t82 -31.5t82 31.5t48 77t22.5 96.5t5.5 89t-5.5 89t-22.5 96.5t-48 77t-82 31.5zM278 712q73 0 120.5 -34t75 -85.5t38 -113.5t10.5 -117q0 -62 -11.5 -128.5t-39.5 -121t-75 -89.5
t-118 -35q-49 0 -86 15.5t-64 42t-45 62t-29 74t-15.5 79t-4.5 77.5q0 62 11.5 128.5t39.5 121t75 89.5t118 35z" />
    <glyph glyph-name="one" unicode="1" horiz-adv-x="556" 
d="M292 700h64l-4 -637h144v-63h-366v63h140l4 554h-2l-6.5 -6.5t-10.5 -8.5l-158 -102l-37 57z" />
    <glyph glyph-name="two" unicode="2" horiz-adv-x="556" 
d="M49 504q0 19 10 53.5t35.5 69t68 60t108.5 25.5q52 0 92 -15t66.5 -41.5t40 -62t13.5 -77.5q0 -58 -26.5 -114.5t-63.5 -105.5t-76.5 -87.5t-64.5 -60.5l-92 -81v-2q10 1 19 2t19 1h310v-68h-460v58l50 45q2 1 16.5 14l36 33.5l48 46.5l52.5 53.5l49 54t38 48.5
q14 21 25.5 40t20 39t13 42t4.5 48q0 25 -8 47.5t-24 39t-40 26t-55 9.5q-44 0 -70 -15t-41 -36.5t-21.5 -45.5t-10.5 -43h-82z" />
    <glyph glyph-name="three" unicode="3" horiz-adv-x="556" 
d="M185 392h28q43 0 76 13.5t54.5 34.5t32.5 46.5t11 50.5q0 48 -32.5 77.5t-85.5 29.5q-26 0 -50.5 -8t-43.5 -23t-30.5 -37t-11.5 -50h-78q0 31 12.5 64t39.5 60t69.5 44.5t102.5 17.5q50 0 86.5 -13.5t60.5 -36.5t35.5 -53.5t11.5 -64.5q0 -47 -16 -79t-38.5 -52
t-48 -29.5t-43.5 -12.5v-2q38 -4 70 -16.5t55 -33.5t36 -51.5t13 -71.5q0 -36 -14 -73t-45 -67t-81.5 -49t-123.5 -19q-69 0 -116.5 12t-63.5 25v81q15 -11 36 -20.5t45 -16t48.5 -10t47.5 -3.5q91 0 136 40.5t45 102.5q0 44 -20.5 69t-51 37.5t-65.5 15.5t-64 3h-29v68z
" />
    <glyph glyph-name="four" unicode="4" horiz-adv-x="556" 
d="M332 607h-2l-232 -332q19 3 40 3h192zM247 63h81l2 147h-316v63l304 427h92l-2 -422h134v-68h-134l-2 -147h83v-63h-242v63z" />
    <glyph glyph-name="five" unicode="5" horiz-adv-x="556" 
d="M460 632h-292l-4 -198q54 -2 112 -10.5t105.5 -31.5t78 -64.5t30.5 -110.5q0 -41 -14.5 -82t-46.5 -73.5t-83 -53t-123 -20.5q-51 0 -90.5 7t-66.5 19v74q9 -5 27 -10.5t39 -10t43 -8t41 -3.5q58 0 94.5 16t57.5 39.5t28.5 50.5t7.5 48q0 39 -17 65.5t-44 44t-61.5 27
t-70 14t-68.5 5t-57 0.5l4 334h370v-68z" />
    <glyph glyph-name="six" unicode="6" horiz-adv-x="556" 
d="M490 632q-17 5 -45 8.5t-58 3.5q-65 0 -113.5 -23.5t-80.5 -63.5t-48 -94t-16 -115q14 15 30.5 30t37.5 26.5t47.5 18.5t60.5 7q52 0 91 -16.5t64.5 -45t38 -68t12.5 -84.5q0 -32 -11 -71.5t-37 -74.5t-69.5 -58.5t-108.5 -23.5q-54 0 -98.5 21t-76 61.5t-48.5 100.5
t-17 138q0 87 20.5 161t62.5 128t106.5 84t152.5 30q23 0 54 -2.5t56 -9.5zM131 277q0 -37 8 -76t26.5 -71.5t48.5 -53t74 -20.5q27 0 52 10t45 29.5t32 49.5t12 71q0 27 -7.5 53t-25 46.5t-44.5 33.5t-66 13q-30 0 -55 -9t-44.5 -21.5t-34 -27.5t-21.5 -27z" />
    <glyph glyph-name="seven" unicode="7" horiz-adv-x="556" 
d="M58 700h440v-57l-239 -487q-27 -55 -51 -95.5t-37 -60.5h-98l42.5 61.5t54.5 94.5l215 426q11 21 25 44h-352v74z" />
    <glyph glyph-name="eight" unicode="8" horiz-adv-x="556" 
d="M42 165q0 40 13.5 69.5t36.5 52t53.5 39.5t65.5 32q-65 29 -105 70t-40 108q0 37 13.5 69t40.5 56t66.5 37.5t91.5 13.5q41 0 80 -9t69 -29t48 -51t18 -74q0 -34 -10.5 -60.5t-29.5 -48.5t-46 -40.5t-60 -34.5l62 -33.5t53.5 -37.5t37.5 -49.5t14 -70.5q0 -90 -62 -138
t-174 -48q-121 0 -178.5 49t-57.5 128zM281 398l63 36q67 39 67 107q0 29 -12 48.5t-30.5 31.5t-42.5 17.5t-48 5.5t-47.5 -6.5t-42 -19.5t-29.5 -33.5t-11 -48.5q0 -22 7.5 -39t19 -30.5t26 -23.5t28.5 -17zM275 324l-49.5 -25.5t-47.5 -32t-36 -42t-14 -54.5
q0 -30 11 -51.5t31 -35.5t47.5 -20.5t60.5 -6.5q44 0 73.5 11.5t47.5 29t25.5 39t7.5 41.5q0 10 -3 22.5t-12 26.5t-26 29.5t-45 30.5z" />
    <glyph glyph-name="nine" unicode="9" horiz-adv-x="556" 
d="M66 68q17 -5 45 -8.5t58 -3.5q65 0 113.5 23.5t80.5 63.5t48 94t16 115q-14 -15 -30.5 -30t-37.5 -26.5t-47.5 -18.5t-60.5 -7q-52 0 -91 16.5t-64.5 45t-38 68t-12.5 84.5q0 32 11 71.5t37 74.5t69.5 58.5t108.5 23.5q54 0 98 -21t75.5 -61.5t49 -100.5t17.5 -138
q0 -87 -20.5 -161t-62.5 -128t-106.5 -84t-152.5 -30q-23 0 -54 2.5t-56 9.5zM425 423q0 37 -8 76t-26.5 71.5t-48.5 53t-74 20.5q-27 0 -52 -10t-45 -29.5t-32 -50t-12 -70.5q0 -27 7.5 -53t25 -46.5t44.5 -33.5t66 -13q30 0 55 9t44.5 21.5t33.5 27.5t22 27z" />
    <glyph glyph-name="colon" unicode=":" horiz-adv-x="278" 
d="M77 454q0 26 18 44t44 18t44 -18t18 -44t-18 -44t-44 -18t-44 18t-18 44zM77 50q0 26 18 44t44 18t44 -18t18 -44t-18 -44t-44 -18t-44 18t-18 44z" />
    <glyph glyph-name="semicolon" unicode=";" horiz-adv-x="278" 
d="M68 -144l34 41q11 14 16.5 28t5.5 37q0 16 -5 25t-16 21q-12 14 -18.5 23.5t-6.5 26.5q0 24 16 39t41 15q38 0 56.5 -30t18.5 -69q0 -52 -18.5 -91.5t-55.5 -74.5l-30 -29zM77 454q0 26 18 44t44 18t44 -18t18 -44t-18 -44t-44 -18t-44 18t-18 44z" />
    <glyph glyph-name="less" unicode="&#x3c;" horiz-adv-x="600" 
d="M47 285l506 229v-68l-424 -193l424 -193v-68l-506 230v63z" />
    <glyph glyph-name="equal" unicode="=" horiz-adv-x="600" 
d="M47 387h506v-68h-506v68zM47 187h506v-68h-506v68z" />
    <glyph glyph-name="greater" unicode="&#x3e;" horiz-adv-x="600" 
d="M553 221l-506 -229v68l424 193l-424 193v68l506 -230v-63z" />
    <glyph glyph-name="question" unicode="?" horiz-adv-x="500" 
d="M95 757q38 13 72.5 16.5t48.5 3.5q64 0 105 -18.5t64.5 -45.5t32 -58t8.5 -56q0 -33 -10 -60t-26 -48.5t-35.5 -39t-38.5 -30.5l-36 -26q-40 -28 -59.5 -45.5t-19.5 -43.5q0 -6 4 -19t12 -21l12 -14l-67 -36q-19 19 -31 40.5t-12 51.5q0 22 5.5 37.5t16 28.5t26 25
l35.5 27l33 22q48 29 76.5 64t28.5 79q0 22 -7.5 43t-24.5 37.5t-44 27t-67 10.5q-25 0 -49 -5.5t-47 -13.5zM123 50q0 26 18 44t44 18t44 -18t18 -44t-18 -44t-44 -18t-44 18t-18 44z" />
    <glyph glyph-name="at" unicode="@" horiz-adv-x="800" 
d="M488 389q0 50 -21 71.5t-58 21.5q-32 0 -58 -16.5t-45 -42.5t-29 -58t-10 -63q0 -45 20 -69t55 -24q33 0 60 18t46 45t29.5 58.5t10.5 58.5zM539 293l-12 -44.5t-4 -22.5q0 -10 6.5 -16.5t26.5 -6.5t41 16t38.5 43t29 63t11.5 77q0 54 -21 98t-57 74.5t-83 47t-99 16.5
q-65 0 -118.5 -23t-92 -63t-60 -92.5t-21.5 -112.5q0 -67 23 -120t62 -89.5t90.5 -56t108.5 -19.5q164 0 241 90h82q-19 -36 -49.5 -66t-71.5 -51.5t-91.5 -34t-110.5 -12.5q-77 0 -144.5 24.5t-117.5 71.5t-79 114t-29 153q0 76 27.5 142t77 114.5t119.5 76.5t154 28
q73 0 136.5 -21.5t110 -61t73 -94.5t26.5 -121q0 -73 -25.5 -126t-63 -87t-80.5 -50t-78 -16q-37 0 -53 16.5t-17 41.5h-2q-20 -23 -50.5 -40.5t-69.5 -17.5q-28 0 -52.5 11t-42.5 32t-28.5 50t-10.5 65q0 52 18 99.5t48 84t69 58t81 21.5q74 0 113 -76l18 57h71z" />
    <glyph glyph-name="A" unicode="A" horiz-adv-x="741" 
d="M471 339l-84 233q-6 17 -9 27.5t-5 20.5h-2q-2 -10 -5 -20.5t-9 -27.5l-92 -233h206zM11 63h64l260 637h92l236 -637h67v-63h-236v63h74l-75 213h-253l-83 -213h84v-63h-230v63z" />
    <glyph glyph-name="B" unicode="B" horiz-adv-x="630" 
d="M210 391h50q33 0 65 5t57 18.5t40.5 38t15.5 64.5q0 45 -15.5 69.5t-37.5 35.5t-46.5 13t-41.5 2h-85zM208 63h65q32 0 68 2t66.5 14.5t50.5 39.5t20 76q0 43 -17 69.5t-44 40.5t-59.5 18.5t-63.5 4.5h-84zM126 637h-80v63h244q51 0 83.5 -4t62.5 -18q40 -19 64 -56
t24 -92q0 -70 -39 -110.5t-97 -50.5v-2q34 0 67 -11t58.5 -32.5t41 -54t15.5 -74.5q0 -56 -21 -93.5t-56 -60t-79.5 -32t-91.5 -9.5h-276v63h76z" />
    <glyph glyph-name="C" unicode="C" horiz-adv-x="685" 
d="M635 517h-78v110q-18 5 -52.5 11t-78.5 6q-64 0 -116 -18.5t-89.5 -55t-58 -90.5t-20.5 -125q0 -144 72.5 -221.5t215.5 -77.5q32 0 61.5 4.5t55.5 10.5l4 116h78l-4 -170q-15 -7 -39 -12.5t-52 -9t-56.5 -5.5t-53.5 -2q-86 0 -155.5 22t-118 66t-74.5 111.5t-26 157.5
q0 73 22.5 140t69.5 117t119 80t170 30q28 0 56.5 -3t55.5 -8t50.5 -11t41.5 -13v-160z" />
    <glyph glyph-name="D" unicode="D" horiz-adv-x="759" 
d="M205 63h108q152 0 226 74q35 35 56.5 92.5t21.5 130.5q0 70 -21.5 125.5t-59.5 88.5q-44 38 -95.5 50.5t-122.5 12.5h-109zM123 637h-80v63h315q78 0 143 -20.5t111 -62.5t71.5 -106t25.5 -151q0 -92 -27 -160t-77 -112.5t-121.5 -66t-159.5 -21.5h-281v63h76z" />
    <glyph glyph-name="E" unicode="E" horiz-adv-x="574" 
d="M123 637h-80v63h473v-162h-74v99h-233l-2 -246h220v-63h-220l-2 -265h243l6 109h74l-6 -172h-479v63h76z" />
    <glyph glyph-name="F" unicode="F" horiz-adv-x="556" 
d="M123 637h-80v63h467l3 -165h-74l-3 102h-227l-2 -257h241v-63h-241l-2 -254h89v-63h-251v63h76z" />
    <glyph glyph-name="G" unicode="G" horiz-adv-x="722" 
d="M625 17q-15 -7 -39 -12.5t-52 -9t-56.5 -5.5t-53.5 -2q-86 0 -155.5 22t-118 66t-74.5 111.5t-26 157.5q0 73 21.5 140t67.5 117t116 80t168 30q35 0 68 -4t61.5 -9.5t50 -12t32.5 -11.5v-158h-74v104q-18 9 -56.5 16t-87.5 7q-63 0 -114 -18.5t-87 -55t-55 -90.5
t-19 -125q0 -144 72.5 -221.5t215.5 -77.5q20 0 54.5 3.5t62.5 11.5v171h-86v63h242v-63h-78v-225z" />
    <glyph glyph-name="H" unicode="H" horiz-adv-x="778" 
d="M123 637h-80v63h242v-63h-76l-2 -257h364l2 257h-80v63h242v-63h-76l-4 -574h80v-63h-242v63h76l2 254h-364l-2 -254h80v-63h-242v63h76z" />
    <glyph glyph-name="I" unicode="I" horiz-adv-x="334" 
d="M126 637h-80v63h242v-63h-76l-4 -574h80v-63h-242v63h76z" />
    <glyph glyph-name="J" unicode="J" horiz-adv-x="315" 
d="M43 700h241v-63h-74l-4 -445q-1 -76 -14 -132.5t-41 -100t-72.5 -77t-108.5 -64.5l-26 63q96 46 135.5 125.5t40.5 183.5l4 447h-81v63z" />
    <glyph glyph-name="K" unicode="K" horiz-adv-x="704" 
d="M43 700h242v-63h-76l-2 -267l304 267h-85v63h242v-63h-62l-311 -272l317 -302h62v-63h-254v63h82l-295 280l-2 -280h80v-63h-242v63h76l4 574h-80v63z" />
    <glyph glyph-name="L" unicode="L" horiz-adv-x="556" 
d="M123 637h-80v63h238v-63h-72l-4 -574h239l6 109h74l-6 -172h-475v63h76z" />
    <glyph glyph-name="M" unicode="M" horiz-adv-x="926" 
d="M35 700h189l225 -559q4 -10 5.5 -19t5.5 -24h2q4 15 5.5 24t5.5 19l225 559h193v-63h-91l6 -574h85v-63h-242v63h75l2 513h-2l-9 -32.5t-8 -21.5l-212 -522h-76l-215 527q-4 8 -6.5 17l-7.5 26h-2l-2 -507h85v-63h-236v63h81l6 574h-87v63z" />
    <glyph glyph-name="N" unicode="N" horiz-adv-x="796" 
d="M123 637h-93v63h167l381 -512q9 -12 17 -25.5l16 -26.5h2l4 501h-87v63h236v-63h-75l-4 -637h-71l-396 526q-14 20 -27 44h-2l-4 -507h88v-63h-232v63h76z" />
    <glyph glyph-name="O" unicode="O" horiz-adv-x="760" 
d="M50 338q0 81 21.5 149.5t63.5 118.5t103.5 78t141.5 28q82 0 144 -28t103.5 -75.5t62 -111t20.5 -135.5q0 -81 -21.5 -149.5t-63.5 -118.5t-103.5 -78t-141.5 -28q-83 0 -144.5 28t-103 75.5t-62 111t-20.5 135.5zM142 350q0 -57 13.5 -110.5t42 -94t74 -65t108.5 -24.5
t108.5 24.5t74 65t42 94t13.5 110.5t-13.5 110.5t-42 94t-74 65t-108.5 24.5t-108.5 -24.5t-74 -65t-42 -94t-13.5 -110.5z" />
    <glyph glyph-name="P" unicode="P" horiz-adv-x="574" 
d="M123 637h-80v63h241q54 0 92 -7.5t69 -24.5q42 -23 66.5 -64.5t24.5 -101.5q0 -53 -17.5 -94t-46.5 -68.5t-67.5 -41.5t-80.5 -14h-117l-2 -221h89v-63h-251v63h76zM207 347h94q72 0 110.5 39.5t38.5 106.5q0 46 -16.5 77t-46.5 48q-26 14 -51.5 16.5t-63.5 2.5h-63z" />
    <glyph glyph-name="Q" unicode="Q" horiz-adv-x="760" 
d="M832 -167q-8 -4 -21 -6.5t-39 -2.5q-25 0 -48 5t-56.5 17.5t-83 35l-125.5 57.5q-14 6 -31 14.5l-32.5 16t-28 13t-16.5 5.5q-47 0 -100 20t-97.5 62.5t-74 109t-29.5 158.5q0 81 21.5 149.5t63.5 118.5t103.5 78t141.5 28q82 0 144 -28t103.5 -75.5t62 -111t20.5 -135.5
q0 -62 -13.5 -119.5t-41 -105t-69.5 -82.5t-100 -51v-2q9 -2 20 -5.5t29 -11.5t43.5 -20.5l62.5 -31.5q28 -12 66.5 -26.5t79.5 -14.5q15 0 26 1.5t22 2.5zM380 644q-63 0 -108.5 -24.5t-74 -65t-42 -94t-13.5 -110.5t13.5 -110.5t42 -94t74 -65t108.5 -24.5t108.5 24.5
t74 65t42 94t13.5 110.5t-13.5 110.5t-42 94t-74 65t-108.5 24.5z" />
    <glyph glyph-name="R" unicode="R" horiz-adv-x="648" 
d="M210 373h83q33 0 62 7.5t50.5 24.5t33.5 43t12 64t-13 62.5t-35 38.5t-52.5 19t-64.5 5h-74zM46 700h234q47 0 93 -5.5t82.5 -24t59 -54.5t22.5 -96q0 -44 -14 -77.5t-37 -57t-52.5 -37.5t-60.5 -17v-2q19 -1 42 -18.5t48 -60.5l59 -102q16 -27 27 -44t20 -26t19 -12
t25 -3h31v-63h-41q-27 0 -45.5 2t-33 9t-26.5 20.5t-26 35.5l-67 115q-23 40 -39 65t-31 39t-31 19t-39 5h-55l-2 -247h81v-63h-243v63h76l4 574h-80v63z" />
    <glyph glyph-name="S" unicode="S" horiz-adv-x="593" 
d="M66 177h82v-95q12 -7 28.5 -12t35.5 -8t37.5 -4.5t35.5 -1.5q75 0 120.5 33.5t45.5 96.5q0 35 -16.5 57.5t-43.5 37.5t-61.5 24.5l-70.5 20t-70.5 23t-61.5 33.5t-43.5 52.5t-16.5 78.5q0 32 11 67t40 64.5t79.5 48.5t128.5 19q19 0 44.5 -2.5t52 -6.5t50.5 -10.5
t41 -13.5v-141h-78v87q-10 4 -24.5 7.5t-31 6t-33 4t-28.5 1.5q-28 0 -56.5 -6t-51.5 -20t-37.5 -37.5t-14.5 -57.5q0 -45 28.5 -68t71 -38t92.5 -26.5t92.5 -33t71 -58.5t28.5 -101q0 -58 -22.5 -98t-60 -65t-85.5 -36t-99 -11q-43 0 -76 4.5t-57.5 10t-43 11.5t-33.5 9
v154z" />
    <glyph glyph-name="T" unicode="T" horiz-adv-x="668" 
d="M291 637h-191l-6 -108h-74l6 171h616l6 -171h-74l-6 108h-191l-4 -574h87v-63h-249v63h76z" />
    <glyph glyph-name="U" unicode="U" horiz-adv-x="759" 
d="M274 637h-75q0 -37 -0.5 -74.5t-1 -80.5t-0.5 -93v-111q0 -65 6.5 -105t28.5 -67q21 -26 59 -38t92 -12q53 0 92.5 13.5t63.5 45.5q22 29 26 75t5 118l2 329h-87v63h242v-63h-77l-2 -379q0 -60 -10 -106t-45 -88q-30 -37 -84 -56.5t-129 -19.5q-92 0 -145.5 22.5
t-84.5 64.5q-12 17 -20 35.5t-12 43t-5.5 56.5t-1.5 76q0 86 0.5 178t1.5 173h-81v63h242v-63z" />
    <glyph glyph-name="V" unicode="V" horiz-adv-x="722" 
d="M68 637h-66v63h242v-63h-78l190 -523q4 -10 6 -19t5 -19h2q3 10 5 19t6 19l188 523h-84v63h236v-63h-66l-247 -637h-92z" />
    <glyph glyph-name="W" unicode="W" horiz-adv-x="1074" 
d="M73 637h-71v63h242v-63h-79l171 -531q4 -10 6 -19t5 -19h2q3 10 5 19t6 19l154 405l-40 126h-75v63h236v-63h-75l159 -531q4 -10 6 -19t5 -19h2q3 10 5 19t6 19l182 531h-89v63h236v-63h-65l-234 -637h-98l-125 412h-2l-159 -412h-98z" />
    <glyph glyph-name="X" unicode="X" horiz-adv-x="704" 
d="M307 353l-199 284h-72v63h254v-63h-82q8 -8 14 -15.5t12 -16.5l128 -188l139 192q9 13 24 28h-83v63h230v-63h-66l-204 -276l208 -298h68v-63h-248v63h79q-13 15 -22 28l-140 205l-150 -207q-5 -7 -10.5 -13l-11.5 -13h81v-63h-230v63h63z" />
    <glyph glyph-name="Y" unicode="Y" horiz-adv-x="722" 
d="M8 700h242v-63h-73q15 -15 24 -28l173 -240l169 236q6 9 12.5 16.5t14.5 15.5h-86v63h230v-63h-64l-239 -335l-3 -239h79v-63h-238v63h73l3 238l-245 336h-72v63z" />
    <glyph glyph-name="Z" unicode="Z" horiz-adv-x="648" 
d="M52 59l412 544q7 9 14.5 17.5t15.5 16.5h-341l-6 -105h-74l6 168h515v-63l-406 -538q-7 -9 -15 -18l-16 -18h359l6 106h74l-6 -169h-538v59z" />
    <glyph glyph-name="bracketleft" unicode="[" 
d="M106 769h176v-63h-94l-4 -894h94v-63h-176z" />
    <glyph glyph-name="backslash" unicode="\" horiz-adv-x="370" 
d="M398 -53l-63 -24l-327 830l63 24z" />
    <glyph glyph-name="bracketright" unicode="]" 
d="M208 -251h-176v63h94l4 894h-94v63h176z" />
    <glyph glyph-name="asciicircum" unicode="^" horiz-adv-x="600" 
d="M300 622l-143 -287h-68l181 365h60l181 -365h-68z" />
    <glyph glyph-name="underscore" unicode="_" horiz-adv-x="500" 
d="M0 -125v50h500v-50h-500z" />
    <glyph glyph-name="grave" unicode="`" 
d="M240 644l-49 -42l-187 156l52 44z" />
    <glyph glyph-name="a" unicode="a" horiz-adv-x="574" 
d="M242 51q21 0 46.5 7.5t48 27.5t38 56.5t15.5 94.5q-46 0 -90 -1.5t-78.5 -10.5t-55.5 -29t-21 -56q0 -44 28.5 -66.5t68.5 -22.5zM157 364h-74v124q43 17 88 28.5t93 11.5q50 0 88 -10t64 -32t39 -57.5t13 -86.5q0 -17 -1 -49.5t-2 -72l-2 -81t-1 -76.5h74v-63h-148v21
q0 23 3.5 49.5t6.5 41.5h-2q-23 -63 -63.5 -93.5t-109.5 -30.5q-22 0 -50 5.5t-52.5 21.5t-41 45t-16.5 76q0 54 27 85.5t72 47.5t104 20.5t124 4.5v37q0 73 -28.5 103.5t-89.5 30.5q-22 0 -54.5 -4.5t-60.5 -16.5v-80z" />
    <glyph glyph-name="b" unicode="b" horiz-adv-x="593" 
d="M165 80q34 -12 57.5 -18t52.5 -6q51 0 87 19t59 49.5t33.5 70.5t10.5 82q0 48 -11.5 82.5t-31 57t-45.5 33t-56 10.5q-27 0 -54 -9t-48.5 -30.5t-35 -57t-14.5 -87.5zM87 706h-87v63h170l-2 -271q0 -9 -1 -22t-2.5 -26.5t-3.5 -26.5t-3 -21h2q8 27 24.5 50t40.5 40
t54 26.5t64 9.5q54 0 93 -19.5t64.5 -53.5t38 -79.5t12.5 -96.5q0 -46 -13 -97.5t-45 -94.5t-85.5 -71t-134.5 -28q-32 0 -55.5 3t-44 8t-41.5 13t-49 17z" />
    <glyph glyph-name="c" unicode="c" horiz-adv-x="519" 
d="M465 13q-30 -9 -68 -17t-81 -8q-77 0 -128.5 23t-82.5 61t-44.5 86.5t-13.5 99.5q0 74 24 125.5t61.5 83.5t83.5 46.5t89 14.5t85 -6t82 -20v-135h-74v81q-8 3 -19.5 5t-23.5 3.5t-23 2.5t-20 1q-56 0 -91 -20t-54.5 -50t-26.5 -65.5t-7 -66.5q0 -7 1 -24.5t7 -40t18 -47
t34 -44.5t55 -33t81 -13q38 0 71 9t69 20z" />
    <glyph glyph-name="d" unicode="d" horiz-adv-x="630" 
d="M435 437l-15 6.5t-19 7.5t-27 6.5t-40 2.5q-92 0 -143 -57.5t-51 -166.5q0 -36 8.5 -68.5t26.5 -57.5t45 -39.5t65 -14.5q47 0 76 19.5t45.5 51t22.5 70t6 76.5v164zM515 63h77v-63h-159q0 32 3 58.5t7 45.5l-2 2q-7 -20 -20.5 -40.5t-34.5 -38t-50 -28.5t-68 -11
q-44 0 -83 15.5t-68 46.5t-46 78t-17 109q0 64 17.5 117.5t52 92t86 60t118.5 21.5q11 0 25.5 -1t29.5 -4t29 -7.5t23 -10.5l2 201h-103v63h185z" />
    <glyph glyph-name="e" unicode="e" horiz-adv-x="556" 
d="M423 314q0 30 -9.5 57.5t-27 48.5t-43 33t-57.5 12q-33 0 -60.5 -11.5t-47.5 -32t-31.5 -48t-13.5 -59.5h290zM133 251q1 -40 11 -75.5t33 -62t60 -42t92 -15.5q42 0 82.5 11t72.5 28l-3 -71q-14 -7 -35 -13.5t-44.5 -11.5t-47.5 -8t-43 -3q-122 0 -193 67t-71 202
q0 57 15.5 106.5t45.5 86t74.5 57.5t103.5 21q51 0 87.5 -14t61 -37t39.5 -53t22.5 -60.5t10 -60t2.5 -52.5h-376z" />
    <glyph glyph-name="f" unicode="f" horiz-adv-x="370" 
d="M433 697q-12 5 -37 8.5t-47 3.5q-46 0 -72.5 -11.5t-40.5 -32t-18 -48t-4 -59.5v-42h133l-1 -63h-132l-2 -390h84v-63h-236v63h70l2 390h-85v63h85v50q0 113 55 162t151 49q7 0 20.5 -1t28.5 -2.5t28.5 -3.5t20.5 -5z" />
    <glyph glyph-name="g" unicode="g" horiz-adv-x="556" 
d="M564 453h-46q-5 0 -14.5 0.5t-20 1.5t-20 2t-14.5 1q31 -30 40 -62t9 -62q0 -43 -17 -77t-46.5 -58t-69.5 -36.5t-85 -12.5q-8 0 -23.5 -2.5t-31 -8t-27 -15t-11.5 -23.5q0 -20 20 -27.5t69 -15.5l138 -23q30 -5 55.5 -13.5t44 -23t29 -36t10.5 -52.5q0 -45 -21.5 -77.5
t-56.5 -53.5t-81 -31.5t-94 -10.5q-47 0 -91 8t-78.5 25t-55.5 43.5t-21 64.5q0 29 11 50.5t29 36.5t41.5 24.5t48.5 15.5v2q-31 7 -55 25.5t-24 54.5q0 20 9 33t22.5 21.5t30 14t32.5 9.5v2q-13 3 -35 12t-43 28.5t-36.5 52t-15.5 81.5q0 40 15.5 74.5t44 59.5t68 39
t86.5 14q21 0 46.5 -3.5t42.5 -8.5h192v-63zM245 -12q-4 0 -22 -5.5t-38.5 -17.5t-36.5 -30.5t-16 -43.5q0 -30 19.5 -48t47 -27.5t57 -12.5t48.5 -3q24 0 53 4.5t54.5 15.5t42.5 31t17 51q0 17 -7.5 28.5t-19.5 19t-28 11.5t-33 7zM287 465q-61 0 -100.5 -34t-39.5 -91
q0 -27 10.5 -50t29 -40.5t42.5 -27t51 -9.5q33 0 59.5 10t45.5 28t29 41.5t10 50.5q0 19 -7.5 40.5t-24 39.5t-42.5 30t-63 12z" />
    <glyph glyph-name="h" unicode="h" horiz-adv-x="667" 
d="M124 706h-100v63h182l-1 -271q0 -9 -1 -22t-2.5 -26.5t-3.5 -26.5t-3 -21h2q8 29 27 52.5t43.5 40t54 25t58.5 8.5q53 0 87.5 -16.5t54.5 -43.5t27.5 -62t7.5 -72q0 -66 -2 -138.5t-2 -132.5h76v-63h-224v63h66q0 60 2 122t2 125q0 19 -2 44.5t-13.5 49t-35 40
t-66.5 16.5q-27 0 -54.5 -9t-49.5 -30.5t-35.5 -57t-13.5 -87.5l-3 -213h76v-63h-232v63h74z" />
    <glyph glyph-name="i" unicode="i" 
d="M124 453h-94v63h176l-4 -453h82v-63h-246v63h82zM93 715q0 26 18 44t44 18t44 -18t18 -44t-18 -44t-44 -18t-44 18t-18 44z" />
    <glyph glyph-name="j" unicode="j" 
d="M215 129q-1 -65 -6.5 -111.5t-15.5 -81t-24 -59.5t-32 -45q-35 -42 -81.5 -63t-98.5 -32l-12 66q45 12 77 31.5t58 50.5q27 32 39 88.5t14 154.5l4 325h-95v63h177zM106 715q0 26 18 44t44 18t44 -18t18 -44t-18 -44t-44 -18t-44 18t-18 44z" />
    <glyph glyph-name="k" unicode="k" horiz-adv-x="593" 
d="M124 706h-100v63h182l-2 -480l197 162v2h-72v63h224v-63h-53l-214 -174l233 -216h56v-63h-224v63h62v2l-209 199l-2 -201h68v-63h-224v63h74z" />
    <glyph glyph-name="l" unicode="l" 
d="M124 706h-100v63h182l-4 -706h82v-63h-238v63h74z" />
    <glyph glyph-name="m" unicode="m" horiz-adv-x="1000" 
d="M54 63h66l4 390h-83v63h165q0 -15 -0.5 -33t-2.5 -29l-8 -52h2q8 29 27 52.5t43.5 40t54 25t58.5 8.5q35 0 62 -9.5t46.5 -26t31 -38.5t16.5 -47h2q4 8 13 28t28.5 40.5t51.5 36.5t82 16q53 0 87.5 -16.5t54.5 -43.5t27.5 -62t7.5 -72q0 -66 -2 -138.5t-2 -132.5h76v-63
h-224v63h66q1 63 2.5 125t1.5 125q0 28 -4 54.5t-16 47t-34 33t-58 12.5q-25 0 -51 -9t-47.5 -30.5t-35.5 -57t-14 -87.5l-2 -213h74v-63h-225v63h66q1 63 2.5 125t1.5 125q0 28 -4 54.5t-16 47t-34 33t-58 12.5q-25 0 -51 -9t-47.5 -30.5t-35.5 -57t-14 -87.5l-2 -213h75
v-63h-224v63z" />
    <glyph glyph-name="n" unicode="n" horiz-adv-x="667" 
d="M405 63h66q0 60 2 122t2 125q0 19 -2 44.5t-13.5 49t-35 40t-66.5 16.5q-27 0 -54.5 -9t-49.5 -30.5t-35.5 -57t-13.5 -87.5l-2 -213h75v-63h-224v63h66l4 390h-83v63h165q0 -15 -0.5 -33t-2.5 -29l-8 -52h2q8 29 27 52.5t43.5 40t54 25t58.5 8.5q53 0 87.5 -16.5
t54.5 -43.5t27.5 -62t7.5 -72q0 -66 -2 -138.5t-2 -132.5h76v-63h-224v63z" />
    <glyph glyph-name="o" unicode="o" horiz-adv-x="594" 
d="M47 244q0 61 17 113.5t49 90t78.5 59t105.5 21.5t105.5 -19t78.5 -53.5t49 -81.5t17 -102q0 -62 -17 -114t-49 -89.5t-78.5 -59t-105.5 -21.5t-105.5 19t-78.5 53.5t-49 81t-17 102.5zM133 258q0 -42 10 -79t30.5 -64t51.5 -43t72 -16t72 16t51.5 43t30.5 64t10 79
t-10 79t-30.5 64t-51.5 43t-72 16t-72 -16t-51.5 -43t-30.5 -64t-10 -79z" />
    <glyph glyph-name="p" unicode="p" horiz-adv-x="630" 
d="M119 453h-89v63h170v-18q0 -9 -1 -22t-2.5 -26.5t-3.5 -26.5t-3 -21h2q8 27 24.5 50t40.5 40t54 26.5t64 9.5q54 0 93 -19.5t64.5 -53.5t38 -79.5t12.5 -96.5q0 -46 -13 -97.5t-45 -94.5t-85.5 -71t-134.5 -28q-27 0 -55.5 5t-50.5 13l-2 -194h86v-63h-242v63h74zM197 80
q34 -12 57.5 -18t52.5 -6q51 0 87 19t59 49.5t33.5 70.5t10.5 82q0 48 -11.5 82.5t-31 57t-45.5 33t-56 10.5q-27 0 -54 -9t-48.5 -30.5t-35 -57t-14.5 -87.5z" />
    <glyph glyph-name="q" unicode="q" horiz-adv-x="630" 
d="M435 437l-15 6.5t-19 7.5t-27 6.5t-40 2.5q-92 0 -143 -57.5t-51 -166.5q0 -36 8.5 -68.5t26.5 -57.5t45 -39.5t65 -14.5q48 0 77.5 21.5t45.5 55t21.5 74t5.5 78.5v152zM356 -188h75l2 188q0 33 3 59t7 45l-2 2q-8 -29 -25.5 -51t-41 -37t-51 -22.5t-55.5 -7.5
q-35 0 -72.5 11.5t-69 40t-52 76.5t-20.5 121q0 66 18 119.5t53.5 92t87 59t118.5 20.5q47 0 83.5 -8.5t71.5 -19.5h31l-4 -688h79v-63h-236v63z" />
    <glyph glyph-name="r" unicode="r" horiz-adv-x="426" 
d="M124 453h-88v63h170v-28q0 -23 -3.5 -62t-7.5 -71h1h2q7 28 17.5 58.5t29.5 55t49.5 40.5t78.5 16q3 0 10.5 -0.5t16.5 -2t16 -3t9 -2.5l-8 -74q-11 4 -26 6t-30 2q-40 0 -69 -17.5t-47.5 -45.5t-28 -63t-10.5 -69l-4 -193h87v-63h-242v63h73z" />
    <glyph glyph-name="s" unicode="s" horiz-adv-x="500" 
d="M423 373h-74l-4 73q-7 6 -19 9.5t-25 6t-25.5 3t-21.5 0.5q-20 0 -41 -3.5t-38 -12.5t-28.5 -24.5t-11.5 -38.5q0 -21 9 -35t25.5 -24t39.5 -16t52 -11q98 -17 142 -50t44 -97q0 -35 -12 -65t-37.5 -52t-65.5 -35t-96 -13q-21 0 -47 2.5t-50.5 6.5t-46 10t-33.5 12
l-4 132h74l4 -77q12 -6 27 -10t30.5 -7t31 -4.5t28.5 -1.5q20 0 41 4.5t38.5 15t28.5 26.5t11 40q0 19 -9 32.5t-24.5 22.5t-35 15t-40.5 11q-52 11 -90.5 22.5t-64.5 28.5t-39 41.5t-13 62.5q0 31 11 59t35 49.5t62.5 34t94.5 12.5q16 0 38 -2.5t44.5 -6.5t44 -10t36.5 -12
z" />
    <glyph glyph-name="t" unicode="t" horiz-adv-x="389" 
d="M38 516h83l4 126l82 5l-4 -131h162v-63h-163q-2 -65 -3 -129.5t-1 -129.5q0 -28 1 -53t8.5 -44t23.5 -30t46 -11q32 0 58.5 7t43.5 14l-3 -65q-20 -10 -52 -17t-64 -7q-54 0 -83.5 17t-43 42.5t-15.5 55t-2 54.5q0 24 0.5 62.5l1 81t1.5 83.5t1 69h-82v63z" />
    <glyph glyph-name="u" unicode="u" horiz-adv-x="648" 
d="M31 516h165q0 -71 -2 -143.5t-2 -161.5q0 -28 3.5 -56t15.5 -50t34.5 -35.5t60.5 -13.5q37 0 63 12.5t43 32.5t26.5 45.5t13.5 52t5 51t1 43.5v160h-81v63h165l-4 -453h72v-63h-153q0 15 0.5 33t2.5 29l8 52h-2q-8 -23 -24 -45.5t-38.5 -40.5t-50.5 -29t-61 -11
q-56 0 -91 16.5t-55.5 45t-28 67t-7.5 82.5q0 71 1.5 132.5t2.5 121.5h-83v63z" />
    <glyph glyph-name="v" unicode="v" horiz-adv-x="574" 
d="M10 516h212v-63h-62l119 -331q4 -11 6.5 -22t4.5 -22h2q2 11 4.5 22t6.5 22l122 331h-67v63h206v-63h-57l-178 -453h-82l-179 453h-58v63z" />
    <glyph glyph-name="w" unicode="w" horiz-adv-x="870" 
d="M17 516h212v-63h-62l111 -321q5 -14 8.5 -29.5l5.5 -24.5h2q2 9 6.5 24.5t9.5 29.5l95 244l-29 77h-57v63h212v-63h-69l109 -321q5 -14 8.5 -29.5l5.5 -24.5h2l5.5 24.5t8.5 29.5l115 321h-69v63h206v-63h-59l-173 -453h-86l-81 237q-5 14 -8.5 29.5l-5.5 24.5h-2
q-2 -9 -6.5 -24.5t-9.5 -29.5l-94 -237h-82l-171 453h-58v63z" />
    <glyph glyph-name="x" unicode="x" horiz-adv-x="593" 
d="M31 516h224v-63h-66v-2q5 -2 8.5 -6l7.5 -9l100 -126l101 126l7.5 9t8.5 6v2h-72v63h206v-63h-59l-154 -184l164 -206h62v-63h-224v63h69v2q-5 2 -8.5 6l-7.5 9l-110 138l-109 -138l-7.5 -9t-8.5 -6v-2h67v-63h-206v63h59l167 200l-154 190h-65v63z" />
    <glyph glyph-name="y" unicode="y" horiz-adv-x="574" 
d="M10 516h218v-63h-65l123 -321q5 -14 8.5 -29.5l5.5 -24.5h2l5.5 24.5t8.5 29.5l115 321h-73v63h206v-63h-57l-158 -435q-27 -76 -53.5 -129.5t-56.5 -87t-66.5 -49t-85.5 -15.5q-19 0 -34.5 2.5t-26.5 6.5v68q9 -3 26 -6t32 -3q44 0 87 29.5t72 100.5l17 42l-189 476h-61
v63z" />
    <glyph glyph-name="z" unicode="z" horiz-adv-x="537" 
d="M478 0h-427v60l287 344q11 13 23.5 25l24.5 24h-244l-4 -83h-74l4 146h416v-57l-297 -357q-9 -11 -19 -20t-20 -19h256l8 87h74z" />
    <glyph glyph-name="braceleft" unicode="{" 
d="M279 706q-28 0 -45.5 -4t-27.5 -16.5t-13.5 -35.5t-3.5 -60q0 -18 -0.5 -43.5t-0.5 -52.5t-0.5 -52t-0.5 -43q0 -57 -13.5 -90.5t-56.5 -48.5v-2q43 -15 56.5 -48.5t13.5 -90.5q0 -18 -0.5 -43.5t-0.5 -52.5t-0.5 -52t-0.5 -43q0 -37 4.5 -60t15 -35.5t28.5 -16.5t46 -4
v-63h-56q-24 0 -45.5 5.5t-38 21.5t-26.5 46t-10 78q0 23 0.5 50.5t0.5 56t0.5 56t0.5 50.5q0 52 -9 82t-41 30h-20v68h20q32 0 41 30t9 82q0 23 0.5 50.5t0.5 56t0.5 56t0.5 50.5q0 48 9.5 78t25 46t36.5 21.5t45 5.5h56v-63z" />
    <glyph glyph-name="bar" unicode="|" horiz-adv-x="222" 
d="M77 750h68v-1000h-68v1000z" />
    <glyph glyph-name="braceright" unicode="}" 
d="M35 -188q28 0 45.5 4t27.5 16.5t13.5 35.5t3.5 60q0 18 0.5 43t0.5 52t0.5 52.5t0.5 43.5q0 28 3 50.5t10.5 40t21 29t35.5 19.5v2q-22 7 -35.5 19t-21 29.5t-10.5 39.5t-3 51q0 18 0.5 43t0.5 52t0.5 52.5t0.5 43.5q0 37 -4.5 60t-15 35.5t-28.5 16.5t-46 4v63h56
q24 0 45.5 -5.5t38 -21.5t26.5 -46t10 -78q0 -23 -0.5 -50.5t-0.5 -56t-0.5 -56t-0.5 -50.5q0 -52 9 -82t41 -30h20v-68h-20q-32 0 -41 -30t-9 -82q0 -23 -0.5 -50.5t-0.5 -56t-0.5 -56t-0.5 -50.5q0 -48 -9.5 -78t-25 -46t-36.5 -21.5t-45 -5.5h-56v63z" />
    <glyph glyph-name="asciitilde" unicode="~" horiz-adv-x="600" 
d="M69 233q8 16 19 31.5t26 28t34.5 20.5t44.5 8q29 0 58 -10.5t57 -23.5t53 -23.5t47 -10.5q29 0 49.5 22t37.5 48l36 -50q-11 -16 -23.5 -31.5t-27.5 -28t-33 -20.5t-42 -8q-26 0 -55 10.5t-58 23.5t-55 23.5t-47 10.5q-31 0 -52 -22t-33 -48z" />
    <glyph glyph-name="uni00A0" unicode="&#xa0;" horiz-adv-x="278" 
 />
    <glyph glyph-name="exclamdown" unicode="&#xa1;" 
d="M199 -243h-92l10 533h72zM219 476q0 -26 -18 -44t-44 -18t-44 18t-18 44t18 44t44 18t44 -18t18 -44z" />
    <glyph glyph-name="cent" unicode="&#xa2;" horiz-adv-x="556" 
d="M281 457q-43 -8 -70 -29t-42 -49.5t-20.5 -60.5t-5.5 -60q0 -35 8 -67t24.5 -58.5t42.5 -45.5t61 -28zM342 56q37 0 75.5 9t73.5 20l-4 -74q-34 -8 -67 -15t-78 -8l-2 -121h-63l2 124q-63 7 -105.5 32.5t-68.5 62t-37 81t-11 91.5q0 66 19.5 114.5t51.5 80.5t72 49.5
t81 22.5l2 108h63l-2 -105q14 0 35 -2t43.5 -5t43 -8t33.5 -11v-135h-68v81q-8 3 -19.5 5.5t-23.5 3.5l-23.5 2t-20.5 1z" />
    <glyph glyph-name="sterling" unicode="&#xa3;" horiz-adv-x="556" 
d="M531 530h-74v101q-23 6 -46 9.5t-47 3.5q-28 0 -56.5 -5.5t-51.5 -23.5t-37.5 -52.5t-14.5 -92.5q0 -14 1 -35.5t3 -37.5h148v-63h-146l2 -20t1.5 -23t0.5 -30v-40q0 -70 -10 -105.5t-21 -52.5h269l6 105h74l-6 -168h-502v63h77q8 13 14 27t9.5 32.5t5.5 44.5t2 62
q0 14 -0.5 30l-1 30.5t-1.5 26.5t-1 18h-91v63h89q-2 17 -3 36t-1 36q0 128 63 185.5t188 57.5q32 0 76.5 -6.5t81.5 -20.5v-155z" />
    <glyph glyph-name="currency" unicode="&#xa4;" horiz-adv-x="556" 
d="M83 199q-26 31 -39.5 69.5t-13.5 81.5t13.5 81.5t39.5 69.5l-56 56l45 43l55 -55q31 26 69.5 39.5t81.5 13.5q86 0 151 -53l55 55l45 -43l-55 -56q25 -31 38.5 -69.5t13.5 -81.5t-13.5 -81.5t-38.5 -69.5l55 -56l-45 -43l-55 55q-32 -26 -70 -39.5t-81 -13.5t-81.5 13.5
t-69.5 39.5l-55 -55l-45 43zM278 535q-37 0 -70 -14.5t-57.5 -39t-38.5 -58.5t-14 -73t14 -73t38.5 -58.5t57.5 -39t70 -14.5t70 14.5t57.5 39t38.5 58.5t14 73t-14 73t-38.5 58.5t-57.5 39t-70 14.5z" />
    <glyph glyph-name="yen" unicode="&#xa5;" horiz-adv-x="556" 
d="M6 700h186v-63h-53l149 -268l145 268h-59v63h176v-63h-49l-146 -274h126v-57h-159l-2 -75h161v-57h-161l-2 -111h57v-63h-183v63h52l2 111h-161v57h161l2 75h-163v57h129l-153 274h-55v63z" />
    <glyph glyph-name="brokenbar" unicode="&#xa6;" horiz-adv-x="222" 
d="M77 175h68v-350h-68v350zM77 675h68v-350h-68v350z" />
    <glyph glyph-name="section" unicode="&#xa7;" horiz-adv-x="556" 
d="M402 556v71q-12 5 -37.5 11t-67.5 6q-38 0 -63 -9t-39.5 -22t-20.5 -29t-6 -29q0 -22 9.5 -38t27 -30t42.5 -27t57 -28l51 -24q29 -15 53 -29.5t41 -31.5t26.5 -40.5t9.5 -56.5q0 -30 -9 -52.5t-22.5 -39t-29.5 -28.5t-31 -22q22 -16 38.5 -30.5t28 -30t17 -34.5t5.5 -44
q0 -49 -19.5 -82.5t-51.5 -54.5t-72.5 -30t-81.5 -9q-36 0 -64.5 4t-51.5 10t-40.5 12.5t-29.5 10.5v140h78v-83q13 -4 40.5 -15t73.5 -11q24 0 48.5 5.5t44 18t32 32t12.5 46.5q0 23 -10.5 40.5t-30.5 32t-49.5 28.5l-67.5 31q-35 16 -65 31.5t-52.5 34.5t-35 43.5
t-12.5 59.5q0 47 28 89.5t73 59.5q-38 17 -65 51.5t-27 79.5q0 46 17 78.5t46.5 52t68.5 28.5t83 9q90 0 175 -32v-124h-74zM340 137l20.5 14t22 20t17.5 28.5t7 37.5q0 40 -25 61t-59 38l-90 45q-35 -18 -54.5 -41t-19.5 -56q0 -23 7 -38.5t19.5 -27.5t30.5 -22t41 -21z
" />
    <glyph glyph-name="dieresis" unicode="&#xa8;" 
d="M-11 698q0 25 17 42t42 17t42 -17t17 -42t-17 -42t-42 -17t-42 17t-17 42zM207 698q0 25 17 42t42 17t42 -17t17 -42t-17 -42t-42 -17t-42 17t-17 42z" />
    <glyph glyph-name="copyright" unicode="&#xa9;" horiz-adv-x="800" 
d="M588 287q-12 -73 -62 -114t-122 -41q-44 0 -80.5 15.5t-62.5 44t-40 69t-14 90.5t14.5 90.5t41 69t64 43.5t84.5 15q67 0 115.5 -38.5t58.5 -111.5h-80q-6 37 -29.5 59.5t-66.5 22.5q-60 0 -94 -41.5t-34 -108.5q0 -69 34.5 -110t94.5 -41q36 0 65 21t33 66h80zM38 350
q0 75 28.5 141t77.5 115t115 77.5t141 28.5t141 -28.5t115 -77.5t77.5 -115t28.5 -141t-28.5 -141t-77.5 -115t-115 -77.5t-141 -28.5t-141 28.5t-115 77.5t-77.5 115t-28.5 141zM106 350q0 -63 23 -117.5t63 -95t93.5 -63.5t114.5 -23t114.5 23t93.5 63.5t63 95t23 117.5
t-23 117.5t-63 95t-93.5 63.5t-114.5 23t-114.5 -23t-93.5 -63.5t-63 -95t-23 -117.5z" />
    <glyph glyph-name="ordfeminine" unicode="&#xaa;" horiz-adv-x="374" 
d="M245 535q-27 0 -54 -1t-49 -6t-35.5 -16.5t-13.5 -32.5q0 -20 18 -32t40 -12q13 0 29 4t30.5 15t24.5 30.5t10 50.5zM45 688q30 11 60 17.5t61 6.5q68 0 102 -25t34 -87q0 -10 -0.5 -29.5t-1.5 -42t-1.5 -45.5t-0.5 -40h46v-45h-101v10q0 11 2.5 25t4.5 23h-2
q-10 -26 -36.5 -46t-72.5 -20q-16 0 -35 3t-35.5 12.5t-27.5 26.5t-11 45q0 33 17.5 52t47 29t68.5 12.5t82 2.5v26q0 35 -17.5 51.5t-56.5 16.5q-14 0 -35.5 -2.5t-39.5 -10.5v-48h-51v82z" />
    <glyph glyph-name="guillemotleft" unicode="&#xab;" horiz-adv-x="500" 
d="M386 449l57 -45l-114 -130l114 -130l-57 -45l-131 147v56zM188 449l57 -45l-114 -130l114 -130l-57 -45l-131 147v56z" />
    <glyph glyph-name="logicalnot" unicode="&#xac;" horiz-adv-x="600" 
d="M485 319h-438v68h506v-279h-68v211z" />
    <glyph glyph-name="uni00AD" unicode="&#xad;" horiz-adv-x="407" 
d="M74 311h259v-74h-259v74z" />
    <glyph glyph-name="registered" unicode="&#xae;" horiz-adv-x="800" 
d="M246 557h159q77 0 116 -28t39 -91q0 -28 -8.5 -48.5t-23 -34.5t-33.5 -22.5t-41 -12.5l111 -177h-78l-109 174h-64v-174h-68v414zM314 380h91q50 0 68.5 16t18.5 45t-23 41t-64 12h-91v-114zM38 350q0 75 28.5 141t77.5 115t115 77.5t141 28.5t141 -28.5t115 -77.5
t77.5 -115t28.5 -141t-28.5 -141t-77.5 -115t-115 -77.5t-141 -28.5t-141 28.5t-115 77.5t-77.5 115t-28.5 141zM106 350q0 -63 23 -117.5t63 -95t93.5 -63.5t114.5 -23t114.5 23t93.5 63.5t63 95t23 117.5t-23 117.5t-63 95t-93.5 63.5t-114.5 23t-114.5 -23t-93.5 -63.5
t-63 -95t-23 -117.5z" />
    <glyph glyph-name="macron" unicode="&#xaf;" 
d="M16 735h282v-63h-282v63z" />
    <glyph glyph-name="degree" unicode="&#xb0;" horiz-adv-x="400" 
d="M109 570q0 -38 26.5 -64.5t64.5 -26.5t64.5 26.5t26.5 64.5t-26.5 64.5t-64.5 26.5t-64.5 -26.5t-26.5 -64.5zM58 570q0 29 11 55t30.5 45.5t45.5 30.5t55 11t55 -11t45.5 -30.5t30.5 -45.5t11 -55t-11 -55t-30.5 -45.5t-45.5 -30.5t-55 -11t-55 11t-45.5 30.5
t-30.5 45.5t-11 55z" />
    <glyph glyph-name="plusminus" unicode="&#xb1;" horiz-adv-x="600" 
d="M266 271h-219v68h219v167h68v-167h219v-68h-219v-167h-68v167zM47 68h506v-68h-506v68z" />
    <glyph glyph-name="uni00B2" unicode="&#xb2;" horiz-adv-x="361" 
d="M31 323l56 47q26 22 56 50t55 57.5t41.5 59t16.5 55.5q0 28 -20.5 45.5t-57.5 17.5q-35 0 -57.5 -17t-27.5 -57h-63q0 29 11.5 53t32 41.5t48.5 27t61 9.5q70 0 105.5 -33.5t35.5 -80.5q0 -32 -11.5 -60.5t-32 -55.5t-47 -53l-56.5 -53l-44 -39v-2h198v-51h-300v39z" />
    <glyph glyph-name="uni00B3" unicode="&#xb3;" horiz-adv-x="361" 
d="M121 525h17q28 0 48.5 7t34.5 18.5t21 25t7 25.5q0 26 -21 43t-50 17q-32 0 -57.5 -17.5t-25.5 -49.5h-63q0 21 8 42.5t26.5 38t48 27t71.5 10.5q34 0 59 -8t41 -22t23.5 -32.5t7.5 -38.5q0 -28 -10.5 -47t-25.5 -31t-32.5 -18t-30.5 -7v-2q52 -5 84 -29.5t32 -73.5
q0 -22 -9 -44.5t-29.5 -41t-54 -30t-82.5 -11.5t-80 7t-42 15v60q20 -14 52.5 -22t62.5 -9q57 1 85.5 24.5t28.5 55.5q0 24 -13 37t-32.5 20t-41.5 8.5t-40 1.5h-18v51z" />
    <glyph glyph-name="acute" unicode="&#xb4;" 
d="M258 802l52 -44l-187 -156l-49 42z" />
    <glyph glyph-name="uni00B5" unicode="&#xb5;" horiz-adv-x="648" 
d="M114 453h-83v63h165q0 -71 -2 -143.5t-2 -161.5q0 -28 3.5 -56t15.5 -50t34.5 -35.5t60.5 -13.5q37 0 63 12.5t43 32.5t26.5 45.5t13.5 52t5 51t1 43.5v160h-81v63h165l-4 -453h72v-63h-153q0 15 0.5 33t2.5 29l8 52h-2q-8 -23 -24 -45.5t-38.5 -40.5t-50.5 -29t-61 -11
q-64 0 -98 34l-2 -285h-86z" />
    <glyph glyph-name="paragraph" unicode="&#xb6;" horiz-adv-x="600" 
d="M245 330q-39 0 -73 13.5t-59.5 38t-40.5 58t-15 72.5q0 50 17 86t47 58.5t72 33t93 10.5h228v-895h-82v827h-105v-827h-82v525z" />
    <glyph glyph-name="periodcentered" unicode="&#xb7;" horiz-adv-x="278" 
d="M77 287q0 26 18 44t44 18t44 -18t18 -44t-18 -44t-44 -18t-44 18t-18 44z" />
    <glyph glyph-name="cedilla" unicode="&#xb8;" 
d="M128 0h57v-68q20 0 36.5 -4t29.5 -13q13 -10 20 -24.5t7 -35.5q0 -29 -13 -46t-32.5 -26.5t-42 -12.5t-40.5 -3q-12 0 -25 1.5t-25.5 3.5t-23 4.5t-16.5 5.5l6 52q37 -16 76 -16q10 0 21 1t20 4.5t15 11t6 20.5q0 23 -13 32t-36 9q-7 0 -13.5 -1.5t-13.5 -3.5v109z" />
    <glyph glyph-name="uni00B9" unicode="&#xb9;" horiz-adv-x="361" 
d="M86 335h86l4 304l-114 -66l-24 45l151 86h55l-4 -369h83v-51h-237v51z" />
    <glyph glyph-name="ordmasculine" unicode="&#xba;" horiz-adv-x="362" 
d="M181 712q40 0 71 -12.5t52.5 -34.5t32.5 -51.5t11 -62.5t-11 -62.5t-32.5 -51.5t-52.5 -34.5t-71 -12.5t-71 12.5t-52.5 34.5t-32.5 51.5t-11 62.5t11 62.5t32.5 51.5t52.5 34.5t71 12.5zM181 435q26 0 45.5 10.5t32.5 27t19.5 37t6.5 41.5t-6.5 41.5t-19.5 37t-32.5 27
t-45.5 10.5t-45.5 -10.5t-32.5 -27t-19.5 -37t-6.5 -41.5t6.5 -41.5t19.5 -37t32.5 -27t45.5 -10.5z" />
    <glyph glyph-name="guillemotright" unicode="&#xbb;" horiz-adv-x="500" 
d="M114 99l-57 45l114 130l-114 130l57 45l131 -147v-56zM312 99l-57 45l114 130l-114 130l57 45l131 -147v-56z" />
    <glyph glyph-name="onequarter" unicode="&#xbc;" horiz-adv-x="834" 
d="M523 175h138l2 182h-2zM639 420h92l-2 -245h80v-51h-80l-2 -73h48v-51h-162v51h46l2 73h-216v39zM629 756l51 -34l-450 -778l-51 34zM80 335h86l4 304l-114 -66l-24 45l151 86h55l-4 -369h83v-51h-237v51z" />
    <glyph glyph-name="onehalf" unicode="&#xbd;" horiz-adv-x="834" 
d="M629 756l51 -34l-450 -778l-51 34zM502 39l56 47q26 22 56 50t55 57.5t41.5 59t16.5 55.5q0 28 -20.5 45.5t-57.5 17.5q-35 0 -57.5 -17t-27.5 -57h-63q0 29 11.5 53t32 41.5t48.5 27t61 9.5q70 0 105.5 -33.5t35.5 -80.5q0 -32 -11.5 -60.5t-32 -55.5t-47 -53l-56.5 -53
l-44 -39v-2h198v-51h-300v39zM80 335h86l4 304l-114 -66l-24 45l151 86h55l-4 -369h83v-51h-237v51z" />
    <glyph glyph-name="threequarters" unicode="&#xbe;" horiz-adv-x="834" 
d="M523 175h138l2 182h-2zM639 420h92l-2 -245h80v-51h-80l-2 -73h48v-51h-162v51h46l2 73h-216v39zM629 756l51 -34l-450 -778l-51 34zM133 525h17q28 0 48.5 7t34.5 18.5t21 25t7 25.5q0 26 -21 43t-50 17q-32 0 -57.5 -17.5t-25.5 -49.5h-63q0 21 8 42.5t26.5 38t48 27
t71.5 10.5q34 0 59 -8t41 -22t23.5 -32.5t7.5 -38.5q0 -28 -10.5 -47t-25.5 -31t-32.5 -18t-30.5 -7v-2q52 -5 84 -29.5t32 -73.5q0 -22 -9 -44.5t-29.5 -41t-54 -30t-82.5 -11.5t-80 7t-42 15v60q20 -14 52.5 -22t62.5 -9q57 1 85.5 24.5t28.5 55.5q0 24 -13 37t-32.5 20
t-41.5 8.5t-40 1.5h-18v51z" />
    <glyph glyph-name="questiondown" unicode="&#xbf;" horiz-adv-x="500" 
d="M405 -231q-38 -13 -72.5 -16.5t-48.5 -3.5q-65 0 -105.5 18.5t-64 45.5t-32 58t-8.5 56q0 33 10 60t26 48.5t35.5 38.5t38.5 31l36 26q40 28 59.5 45.5t19.5 43.5q0 6 -4 19t-12 21l-12 14l67 36q19 -19 31 -40.5t12 -51.5q0 -22 -5.5 -37.5t-16 -28.5t-26 -25l-35.5 -27
l-33 -22q-48 -29 -76.5 -64t-28.5 -79q0 -22 7.5 -43t24.5 -37.5t44 -27t67 -10.5q25 0 49 5.5t47 13.5zM377 476q0 -26 -18 -44t-44 -18t-44 18t-18 44t18 44t44 18t44 -18t18 -44z" />
    <glyph glyph-name="Agrave" unicode="&#xc0;" horiz-adv-x="741" 
d="M471 339l-84 233q-6 17 -9 27.5t-5 20.5h-2q-2 -10 -5 -20.5t-9 -27.5l-92 -233h206zM11 63h64l260 637h92l236 -637h67v-63h-236v63h74l-75 213h-253l-83 -213h84v-63h-230v63zM440 774l-49 -42l-187 156l52 44z" />
    <glyph glyph-name="Aacute" unicode="&#xc1;" horiz-adv-x="741" 
d="M471 339l-84 233q-6 17 -9 27.5t-5 20.5h-2q-2 -10 -5 -20.5t-9 -27.5l-92 -233h206zM11 63h64l260 637h92l236 -637h67v-63h-236v63h74l-75 213h-253l-83 -213h84v-63h-230v63zM481 932l52 -44l-187 -156l-49 42z" />
    <glyph glyph-name="Acircumflex" unicode="&#xc2;" horiz-adv-x="741" 
d="M471 339l-84 233q-6 17 -9 27.5t-5 20.5h-2q-2 -10 -5 -20.5t-9 -27.5l-92 -233h206zM11 63h64l260 637h92l236 -637h67v-63h-236v63h74l-75 213h-253l-83 -213h84v-63h-230v63zM199 784l144 138h56l144 -138l-49 -42l-123 123l-123 -123z" />
    <glyph glyph-name="Atilde" unicode="&#xc3;" horiz-adv-x="741" 
d="M471 339l-84 233q-6 17 -9 27.5t-5 20.5h-2q-2 -10 -5 -20.5t-9 -27.5l-92 -233h206zM11 63h64l260 637h92l236 -637h67v-63h-236v63h74l-75 213h-253l-83 -213h84v-63h-230v63zM189 807q20 40 44 60t67 20q27 0 44.5 -7t38.5 -19q12 -7 29 -15t26 -8q20 0 35 14.5
t26 29.5l48 -34l-22.5 -28t-22.5 -23t-27 -16t-35 -6q-29 0 -47.5 8t-41.5 22q-11 7 -23.5 13t-23.5 6q-21 0 -34.5 -13t-24.5 -34z" />
    <glyph glyph-name="Adieresis" unicode="&#xc4;" horiz-adv-x="741" 
d="M471 339l-84 233q-6 17 -9 27.5t-5 20.5h-2q-2 -10 -5 -20.5t-9 -27.5l-92 -233h206zM11 63h64l260 637h92l236 -637h67v-63h-236v63h74l-75 213h-253l-83 -213h84v-63h-230v63zM209 828q0 25 17 42t42 17t42 -17t17 -42t-17 -42t-42 -17t-42 17t-17 42zM427 828
q0 25 17 42t42 17t42 -17t17 -42t-17 -42t-42 -17t-42 17t-17 42z" />
    <glyph glyph-name="Aring" unicode="&#xc5;" horiz-adv-x="741" 
d="M471 339l-84 233q-6 17 -9 27.5t-5 20.5h-2q-2 -10 -5 -20.5t-9 -27.5l-92 -233h206zM11 63h64l260 637h92l236 -637h67v-63h-236v63h74l-75 213h-253l-83 -213h84v-63h-230v63zM281 830q0 21 7.5 39t21 31.5t32 21.5t39.5 8q42 0 71 -29t29 -71q0 -21 -8 -39.5
t-21.5 -32t-31.5 -21t-39 -7.5q-43 0 -71.5 28.5t-28.5 71.5zM338 830q0 -24 10 -39.5t33 -15.5t33 15.5t10 39.5q0 55 -43 55q-22 0 -32.5 -16t-10.5 -39z" />
    <glyph glyph-name="AE" unicode="&#xc6;" horiz-adv-x="981" 
d="M421 700h480v-162h-74v99h-218l-2 -264h215v-63h-215l-2 -247h243l6 109h74l-6 -172h-479v63h76l2 247h-240l-135 -247h81v-63h-230v63h63zM314 373h207l2 264h-64z" />
    <glyph glyph-name="Ccedilla" unicode="&#xc7;" horiz-adv-x="685" 
d="M557 627q-18 5 -52.5 11t-78.5 6q-64 0 -116 -18.5t-89.5 -55t-58 -90.5t-20.5 -125q0 -144 72.5 -221.5t215.5 -77.5q32 0 61.5 4.5t55.5 10.5l4 116h78l-4 -170q-14 -6 -35.5 -11t-46.5 -9t-51 -6.5t-50 -2.5v-56q20 0 36.5 -4t29.5 -13q13 -10 20 -24.5t7 -35.5
q0 -29 -13 -46t-32.5 -26.5t-42 -12.5t-40.5 -3q-12 0 -25 1.5t-25.5 3.5t-23 4.5t-16.5 5.5l6 52q37 -16 76 -16q10 0 21 1t20 4.5t15 11t6 20.5q0 23 -13 32t-36 9q-7 0 -13.5 -1.5t-13.5 -3.5v99q-78 5 -140 29t-105.5 68.5t-66.5 108.5t-23 149q0 73 22.5 140t69.5 117
t119 80t170 30q28 0 56.5 -3t55.5 -8t50.5 -11t41.5 -13v-160h-78v110z" />
    <glyph glyph-name="Egrave" unicode="&#xc8;" horiz-adv-x="574" 
d="M123 637h-80v63h473v-162h-74v99h-233l-2 -246h220v-63h-220l-2 -265h243l6 109h74l-6 -172h-479v63h76zM362 774l-49 -42l-187 156l52 44z" />
    <glyph glyph-name="Eacute" unicode="&#xc9;" horiz-adv-x="574" 
d="M123 637h-80v63h473v-162h-74v99h-233l-2 -246h220v-63h-220l-2 -265h243l6 109h74l-6 -172h-479v63h76zM398 932l52 -44l-187 -156l-49 42z" />
    <glyph glyph-name="Ecircumflex" unicode="&#xca;" horiz-adv-x="574" 
d="M123 637h-80v63h473v-162h-74v99h-233l-2 -246h220v-63h-220l-2 -265h243l6 109h74l-6 -172h-479v63h76zM115 784l144 138h56l144 -138l-49 -42l-123 123l-123 -123z" />
    <glyph glyph-name="Edieresis" unicode="&#xcb;" horiz-adv-x="574" 
d="M123 637h-80v63h473v-162h-74v99h-233l-2 -246h220v-63h-220l-2 -265h243l6 109h74l-6 -172h-479v63h76zM119 828q0 25 17 42t42 17t42 -17t17 -42t-17 -42t-42 -17t-42 17t-17 42zM337 828q0 25 17 42t42 17t42 -17t17 -42t-17 -42t-42 -17t-42 17t-17 42z" />
    <glyph glyph-name="Igrave" unicode="&#xcc;" horiz-adv-x="334" 
d="M126 637h-80v63h242v-63h-76l-4 -574h80v-63h-242v63h76zM240 774l-49 -42l-187 156l52 44z" />
    <glyph glyph-name="Iacute" unicode="&#xcd;" horiz-adv-x="334" 
d="M126 637h-80v63h242v-63h-76l-4 -574h80v-63h-242v63h76zM258 932l52 -44l-187 -156l-49 42z" />
    <glyph glyph-name="Icircumflex" unicode="&#xce;" horiz-adv-x="334" 
d="M126 637h-80v63h242v-63h-76l-4 -574h80v-63h-242v63h76zM-7 784l144 138h56l144 -138l-49 -42l-123 123l-123 -123z" />
    <glyph glyph-name="Idieresis" unicode="&#xcf;" horiz-adv-x="334" 
d="M126 637h-80v63h242v-63h-76l-4 -574h80v-63h-242v63h76zM-1 828q0 25 17 42t42 17t42 -17t17 -42t-17 -42t-42 -17t-42 17t-17 42zM217 828q0 25 17 42t42 17t42 -17t17 -42t-17 -42t-42 -17t-42 17t-17 42z" />
    <glyph glyph-name="Eth" unicode="&#xd0;" horiz-adv-x="759" 
d="M424 341h-217l-2 -278h108q152 0 226 74q35 35 56.5 92.5t21.5 130.5q0 70 -21.5 125.5t-59.5 88.5q-44 38 -95.5 50.5t-122.5 12.5h-109l-2 -233h217v-63zM43 63h76l2 278h-78v63h78l2 233h-80v63h315q78 0 143 -20.5t111 -62.5t71.5 -106t25.5 -151q0 -92 -27 -160
t-77 -112.5t-121.5 -66t-159.5 -21.5h-281v63z" />
    <glyph glyph-name="Ntilde" unicode="&#xd1;" horiz-adv-x="796" 
d="M123 637h-93v63h167l381 -512q9 -12 17 -25.5l16 -26.5h2l4 501h-87v63h236v-63h-75l-4 -637h-71l-396 526q-14 20 -27 44h-2l-4 -507h88v-63h-232v63h76zM234 807q20 40 44 60t67 20q27 0 44.5 -7t38.5 -19q12 -7 29 -15t26 -8q20 0 35 14.5t26 29.5l48 -34l-22.5 -28
t-22.5 -23t-27 -16t-35 -6q-29 0 -47.5 8t-41.5 22q-11 7 -23.5 13t-23.5 6q-21 0 -34.5 -13t-24.5 -34z" />
    <glyph glyph-name="Ograve" unicode="&#xd2;" horiz-adv-x="760" 
d="M50 338q0 81 21.5 149.5t63.5 118.5t103.5 78t141.5 28q82 0 144 -28t103.5 -75.5t62 -111t20.5 -135.5q0 -81 -21.5 -149.5t-63.5 -118.5t-103.5 -78t-141.5 -28q-83 0 -144.5 28t-103 75.5t-62 111t-20.5 135.5zM142 350q0 -57 13.5 -110.5t42 -94t74 -65t108.5 -24.5
t108.5 24.5t74 65t42 94t13.5 110.5t-13.5 110.5t-42 94t-74 65t-108.5 24.5t-108.5 -24.5t-74 -65t-42 -94t-13.5 -110.5zM452 774l-49 -42l-187 156l52 44z" />
    <glyph glyph-name="Oacute" unicode="&#xd3;" horiz-adv-x="760" 
d="M50 338q0 81 21.5 149.5t63.5 118.5t103.5 78t141.5 28q82 0 144 -28t103.5 -75.5t62 -111t20.5 -135.5q0 -81 -21.5 -149.5t-63.5 -118.5t-103.5 -78t-141.5 -28q-83 0 -144.5 28t-103 75.5t-62 111t-20.5 135.5zM142 350q0 -57 13.5 -110.5t42 -94t74 -65t108.5 -24.5
t108.5 24.5t74 65t42 94t13.5 110.5t-13.5 110.5t-42 94t-74 65t-108.5 24.5t-108.5 -24.5t-74 -65t-42 -94t-13.5 -110.5zM488 932l52 -44l-187 -156l-49 42z" />
    <glyph glyph-name="Ocircumflex" unicode="&#xd4;" horiz-adv-x="760" 
d="M50 338q0 81 21.5 149.5t63.5 118.5t103.5 78t141.5 28q82 0 144 -28t103.5 -75.5t62 -111t20.5 -135.5q0 -81 -21.5 -149.5t-63.5 -118.5t-103.5 -78t-141.5 -28q-83 0 -144.5 28t-103 75.5t-62 111t-20.5 135.5zM142 350q0 -57 13.5 -110.5t42 -94t74 -65t108.5 -24.5
t108.5 24.5t74 65t42 94t13.5 110.5t-13.5 110.5t-42 94t-74 65t-108.5 24.5t-108.5 -24.5t-74 -65t-42 -94t-13.5 -110.5zM208 784l144 138h56l144 -138l-49 -42l-123 123l-123 -123z" />
    <glyph glyph-name="Otilde" unicode="&#xd5;" horiz-adv-x="760" 
d="M50 338q0 81 21.5 149.5t63.5 118.5t103.5 78t141.5 28q82 0 144 -28t103.5 -75.5t62 -111t20.5 -135.5q0 -81 -21.5 -149.5t-63.5 -118.5t-103.5 -78t-141.5 -28q-83 0 -144.5 28t-103 75.5t-62 111t-20.5 135.5zM142 350q0 -57 13.5 -110.5t42 -94t74 -65t108.5 -24.5
t108.5 24.5t74 65t42 94t13.5 110.5t-13.5 110.5t-42 94t-74 65t-108.5 24.5t-108.5 -24.5t-74 -65t-42 -94t-13.5 -110.5zM200 807q20 40 44 60t67 20q27 0 44.5 -7t38.5 -19q12 -7 29 -15t26 -8q20 0 35 14.5t26 29.5l48 -34l-22.5 -28t-22.5 -23t-27 -16t-35 -6
q-29 0 -47.5 8t-41.5 22q-11 7 -23.5 13t-23.5 6q-21 0 -34.5 -13t-24.5 -34z" />
    <glyph glyph-name="Odieresis" unicode="&#xd6;" horiz-adv-x="760" 
d="M50 338q0 81 21.5 149.5t63.5 118.5t103.5 78t141.5 28q82 0 144 -28t103.5 -75.5t62 -111t20.5 -135.5q0 -81 -21.5 -149.5t-63.5 -118.5t-103.5 -78t-141.5 -28q-83 0 -144.5 28t-103 75.5t-62 111t-20.5 135.5zM142 350q0 -57 13.5 -110.5t42 -94t74 -65t108.5 -24.5
t108.5 24.5t74 65t42 94t13.5 110.5t-13.5 110.5t-42 94t-74 65t-108.5 24.5t-108.5 -24.5t-74 -65t-42 -94t-13.5 -110.5zM212 828q0 25 17 42t42 17t42 -17t17 -42t-17 -42t-42 -17t-42 17t-17 42zM430 828q0 25 17 42t42 17t42 -17t17 -42t-17 -42t-42 -17t-42 17t-17 42
z" />
    <glyph glyph-name="multiply" unicode="&#xd7;" horiz-adv-x="600" 
d="M72 435l46 46l182 -182l182 182l46 -46l-182 -182l182 -182l-46 -46l-182 182l-182 -182l-46 46l182 182z" />
    <glyph glyph-name="Oslash" unicode="&#xd8;" horiz-adv-x="760" 
d="M506 609q-25 17 -56.5 26t-69.5 9q-63 0 -108.5 -24.5t-74 -65t-42 -94t-13.5 -110.5q0 -63 16.5 -120.5t51.5 -99.5zM258 90q51 -34 122 -34q63 0 108.5 24.5t74 65t42 94t13.5 110.5q0 62 -15.5 118t-49.5 98zM166 60q-58 48 -87 120.5t-29 157.5q0 81 21.5 149.5
t63.5 118.5t103.5 78t141.5 28q49 0 90.5 -10t75.5 -29l71 114l52 -34l-71 -115q57 -48 84.5 -120t27.5 -156q0 -81 -21.5 -149.5t-63.5 -118.5t-103.5 -78t-141.5 -28q-93 0 -162 37l-75 -120l-52 34z" />
    <glyph glyph-name="Ugrave" unicode="&#xd9;" horiz-adv-x="759" 
d="M274 637h-75q0 -37 -0.5 -74.5t-1 -80.5t-0.5 -93v-111q0 -65 6.5 -105t28.5 -67q21 -26 59 -38t92 -12q53 0 92.5 13.5t63.5 45.5q22 29 26 75t5 118l2 329h-87v63h242v-63h-77l-2 -379q0 -60 -10 -106t-45 -88q-30 -37 -84 -56.5t-129 -19.5q-92 0 -145.5 22.5
t-84.5 64.5q-12 17 -20 35.5t-12 43t-5.5 56.5t-1.5 76q0 86 0.5 178t1.5 173h-81v63h242v-63zM450 774l-49 -42l-187 156l52 44z" />
    <glyph glyph-name="Uacute" unicode="&#xda;" horiz-adv-x="759" 
d="M274 637h-75q0 -37 -0.5 -74.5t-1 -80.5t-0.5 -93v-111q0 -65 6.5 -105t28.5 -67q21 -26 59 -38t92 -12q53 0 92.5 13.5t63.5 45.5q22 29 26 75t5 118l2 329h-87v63h242v-63h-77l-2 -379q0 -60 -10 -106t-45 -88q-30 -37 -84 -56.5t-129 -19.5q-92 0 -145.5 22.5
t-84.5 64.5q-12 17 -20 35.5t-12 43t-5.5 56.5t-1.5 76q0 86 0.5 178t1.5 173h-81v63h242v-63zM488 932l52 -44l-187 -156l-49 42z" />
    <glyph glyph-name="Ucircumflex" unicode="&#xdb;" horiz-adv-x="759" 
d="M274 637h-75q0 -37 -0.5 -74.5t-1 -80.5t-0.5 -93v-111q0 -65 6.5 -105t28.5 -67q21 -26 59 -38t92 -12q53 0 92.5 13.5t63.5 45.5q22 29 26 75t5 118l2 329h-87v63h242v-63h-77l-2 -379q0 -60 -10 -106t-45 -88q-30 -37 -84 -56.5t-129 -19.5q-92 0 -145.5 22.5
t-84.5 64.5q-12 17 -20 35.5t-12 43t-5.5 56.5t-1.5 76q0 86 0.5 178t1.5 173h-81v63h242v-63zM208 784l144 138h56l144 -138l-49 -42l-123 123l-123 -123z" />
    <glyph glyph-name="Udieresis" unicode="&#xdc;" horiz-adv-x="759" 
d="M274 637h-75q0 -37 -0.5 -74.5t-1 -80.5t-0.5 -93v-111q0 -65 6.5 -105t28.5 -67q21 -26 59 -38t92 -12q53 0 92.5 13.5t63.5 45.5q22 29 26 75t5 118l2 329h-87v63h242v-63h-77l-2 -379q0 -60 -10 -106t-45 -88q-30 -37 -84 -56.5t-129 -19.5q-92 0 -145.5 22.5
t-84.5 64.5q-12 17 -20 35.5t-12 43t-5.5 56.5t-1.5 76q0 86 0.5 178t1.5 173h-81v63h242v-63zM212 828q0 25 17 42t42 17t42 -17t17 -42t-17 -42t-42 -17t-42 17t-17 42zM430 828q0 25 17 42t42 17t42 -17t17 -42t-17 -42t-42 -17t-42 17t-17 42z" />
    <glyph glyph-name="Yacute" unicode="&#xdd;" horiz-adv-x="722" 
d="M8 700h242v-63h-73q15 -15 24 -28l173 -240l169 236q6 9 12.5 16.5t14.5 15.5h-86v63h230v-63h-64l-239 -335l-3 -239h79v-63h-238v63h73l3 238l-245 336h-72v63zM491 932l52 -44l-187 -156l-49 42z" />
    <glyph glyph-name="Thorn" unicode="&#xde;" horiz-adv-x="574" 
d="M123 637h-80v63h251v-63h-85v-57h75q54 0 92 -7.5t69 -24.5q42 -23 66.5 -64.5t24.5 -101.5q0 -53 -17.5 -94t-46.5 -68.5t-67.5 -41.5t-80.5 -14h-119v-101h89v-63h-251v63h76zM206 227h95q72 0 110.5 39.5t38.5 106.5q0 46 -16.5 77t-46.5 48q-26 14 -51.5 16.5
t-63.5 2.5h-64z" />
    <glyph glyph-name="germandbls" unicode="&#xdf;" horiz-adv-x="704" 
d="M124 453h-90v63h90v26q0 34 11 75.5t40 76.5t80 59t132 24q41 0 80 -8t69.5 -26t49 -46.5t18.5 -69.5q0 -31 -7 -52t-20.5 -36.5t-32.5 -28.5t-43 -28l-47 -29t-33 -23t-19.5 -22t-6.5 -26q0 -29 21 -42t57 -26l69 -25q25 -9 46 -19.5t36.5 -26t24 -37t8.5 -52.5
q0 -44 -15 -74t-41 -49.5t-61.5 -28t-76.5 -8.5q-39 0 -80 5t-67 13v134h68v-78q16 -4 37.5 -7.5t45.5 -3.5q15 0 34 3t36.5 11.5t29.5 24.5t12 42q0 32 -19.5 50t-48.5 30t-63 21.5t-63 24.5t-48.5 40.5t-19.5 69.5q0 25 9.5 45t27.5 37.5t43.5 35t57.5 37.5q23 15 37 26.5
t21.5 22t10 21.5t2.5 24q0 42 -39 66.5t-105 24.5q-67 0 -103 -21.5t-52.5 -52t-19.5 -63.5t-3 -57l-4 -457h67v-63h-217v63h70z" />
    <glyph glyph-name="agrave" unicode="&#xe0;" horiz-adv-x="574" 
d="M242 51q21 0 46.5 7.5t48 27.5t38 56.5t15.5 94.5q-46 0 -90 -1.5t-78.5 -10.5t-55.5 -29t-21 -56q0 -44 28.5 -66.5t68.5 -22.5zM157 364h-74v124q43 17 88 28.5t93 11.5q50 0 88 -10t64 -32t39 -57.5t13 -86.5q0 -17 -1 -49.5t-2 -72l-2 -81t-1 -76.5h74v-63h-148v21
q0 23 3.5 49.5t6.5 41.5h-2q-23 -63 -63.5 -93.5t-109.5 -30.5q-22 0 -50 5.5t-52.5 21.5t-41 45t-16.5 76q0 54 27 85.5t72 47.5t104 20.5t124 4.5v37q0 73 -28.5 103.5t-89.5 30.5q-22 0 -54.5 -4.5t-60.5 -16.5v-80zM370 644l-49 -42l-187 156l52 44z" />
    <glyph glyph-name="aacute" unicode="&#xe1;" horiz-adv-x="574" 
d="M242 51q21 0 46.5 7.5t48 27.5t38 56.5t15.5 94.5q-46 0 -90 -1.5t-78.5 -10.5t-55.5 -29t-21 -56q0 -44 28.5 -66.5t68.5 -22.5zM157 364h-74v124q43 17 88 28.5t93 11.5q50 0 88 -10t64 -32t39 -57.5t13 -86.5q0 -17 -1 -49.5t-2 -72l-2 -81t-1 -76.5h74v-63h-148v21
q0 23 3.5 49.5t6.5 41.5h-2q-23 -63 -63.5 -93.5t-109.5 -30.5q-22 0 -50 5.5t-52.5 21.5t-41 45t-16.5 76q0 54 27 85.5t72 47.5t104 20.5t124 4.5v37q0 73 -28.5 103.5t-89.5 30.5q-22 0 -54.5 -4.5t-60.5 -16.5v-80zM390 802l52 -44l-187 -156l-49 42z" />
    <glyph glyph-name="acircumflex" unicode="&#xe2;" horiz-adv-x="574" 
d="M242 51q21 0 46.5 7.5t48 27.5t38 56.5t15.5 94.5q-46 0 -90 -1.5t-78.5 -10.5t-55.5 -29t-21 -56q0 -44 28.5 -66.5t68.5 -22.5zM157 364h-74v124q43 17 88 28.5t93 11.5q50 0 88 -10t64 -32t39 -57.5t13 -86.5q0 -17 -1 -49.5t-2 -72l-2 -81t-1 -76.5h74v-63h-148v21
q0 23 3.5 49.5t6.5 41.5h-2q-23 -63 -63.5 -93.5t-109.5 -30.5q-22 0 -50 5.5t-52.5 21.5t-41 45t-16.5 76q0 54 27 85.5t72 47.5t104 20.5t124 4.5v37q0 73 -28.5 103.5t-89.5 30.5q-22 0 -54.5 -4.5t-60.5 -16.5v-80zM103 654l144 138h56l144 -138l-49 -42l-123 123
l-123 -123z" />
    <glyph glyph-name="atilde" unicode="&#xe3;" horiz-adv-x="574" 
d="M242 51q21 0 46.5 7.5t48 27.5t38 56.5t15.5 94.5q-46 0 -90 -1.5t-78.5 -10.5t-55.5 -29t-21 -56q0 -44 28.5 -66.5t68.5 -22.5zM157 364h-74v124q43 17 88 28.5t93 11.5q50 0 88 -10t64 -32t39 -57.5t13 -86.5q0 -17 -1 -49.5t-2 -72l-2 -81t-1 -76.5h74v-63h-148v21
q0 23 3.5 49.5t6.5 41.5h-2q-23 -63 -63.5 -93.5t-109.5 -30.5q-22 0 -50 5.5t-52.5 21.5t-41 45t-16.5 76q0 54 27 85.5t72 47.5t104 20.5t124 4.5v37q0 73 -28.5 103.5t-89.5 30.5q-22 0 -54.5 -4.5t-60.5 -16.5v-80zM108 677q20 40 44 60t67 20q27 0 44.5 -7t38.5 -19
q12 -7 29 -15t26 -8q20 0 35 14.5t26 29.5l48 -34l-22.5 -28t-22.5 -23t-27 -16t-35 -6q-29 0 -47.5 8t-41.5 22q-11 7 -23.5 13t-23.5 6q-21 0 -34.5 -13t-24.5 -34z" />
    <glyph glyph-name="adieresis" unicode="&#xe4;" horiz-adv-x="574" 
d="M242 51q21 0 46.5 7.5t48 27.5t38 56.5t15.5 94.5q-46 0 -90 -1.5t-78.5 -10.5t-55.5 -29t-21 -56q0 -44 28.5 -66.5t68.5 -22.5zM157 364h-74v124q43 17 88 28.5t93 11.5q50 0 88 -10t64 -32t39 -57.5t13 -86.5q0 -17 -1 -49.5t-2 -72l-2 -81t-1 -76.5h74v-63h-148v21
q0 23 3.5 49.5t6.5 41.5h-2q-23 -63 -63.5 -93.5t-109.5 -30.5q-22 0 -50 5.5t-52.5 21.5t-41 45t-16.5 76q0 54 27 85.5t72 47.5t104 20.5t124 4.5v37q0 73 -28.5 103.5t-89.5 30.5q-22 0 -54.5 -4.5t-60.5 -16.5v-80zM109 698q0 25 17 42t42 17t42 -17t17 -42t-17 -42
t-42 -17t-42 17t-17 42zM327 698q0 25 17 42t42 17t42 -17t17 -42t-17 -42t-42 -17t-42 17t-17 42z" />
    <glyph glyph-name="aring" unicode="&#xe5;" horiz-adv-x="574" 
d="M242 51q21 0 46.5 7.5t48 27.5t38 56.5t15.5 94.5q-46 0 -90 -1.5t-78.5 -10.5t-55.5 -29t-21 -56q0 -44 28.5 -66.5t68.5 -22.5zM157 364h-74v124q43 17 88 28.5t93 11.5q50 0 88 -10t64 -32t39 -57.5t13 -86.5q0 -17 -1 -49.5t-2 -72l-2 -81t-1 -76.5h74v-63h-148v21
q0 23 3.5 49.5t6.5 41.5h-2q-23 -63 -63.5 -93.5t-109.5 -30.5q-22 0 -50 5.5t-52.5 21.5t-41 45t-16.5 76q0 54 27 85.5t72 47.5t104 20.5t124 4.5v37q0 73 -28.5 103.5t-89.5 30.5q-22 0 -54.5 -4.5t-60.5 -16.5v-80zM176 700q0 42 29 71t71 29t71 -29t29 -71t-29 -71
t-71 -29t-71 29t-29 71zM233 700q0 -24 10 -39.5t33 -15.5t33 15.5t10 39.5q0 55 -43 55q-22 0 -32.5 -16t-10.5 -39z" />
    <glyph glyph-name="ae" unicode="&#xe6;" horiz-adv-x="870" 
d="M72 494q19 7 42.5 13.5t48.5 11t48.5 7t41.5 2.5q26 0 53.5 -4.5t52.5 -16.5t44.5 -32t29.5 -51h2q1 8 10.5 25.5t29.5 35t51 30.5t76 13q54 0 91 -16t61 -41.5t37 -57t19 -62.5t7 -58.5t1 -43.5l-355 -6q0 -21 3 -52.5t19.5 -61.5t53 -51.5t103.5 -21.5q50 0 89.5 13
t61.5 25v-74q-37 -14 -82 -23t-83 -9q-77 0 -132.5 29t-78.5 97h-2q-9 -29 -26.5 -52.5t-41.5 -40t-53.5 -25t-62.5 -8.5q-38 0 -71 9.5t-57 28.5t-37.5 47t-13.5 64q0 28 8 55t33.5 48.5t73 35.5t126.5 17l92 4v27q0 79 -35 110t-105 31q-23 0 -49.5 -5t-53.5 -13l-2 -83
h-70zM134 140q0 -22 9 -38.5t23.5 -28t32.5 -17t35 -5.5q70 0 110.5 43.5t40.5 145.5l-107 -8q-36 -3 -63 -7.5t-45 -14t-27 -26.5t-9 -44zM736 306q-2 22 -7 49.5t-18.5 52t-39 41t-69.5 16.5q-65 0 -102 -40t-37 -125z" />
    <glyph glyph-name="ccedilla" unicode="&#xe7;" horiz-adv-x="519" 
d="M398 367v81q-8 3 -19.5 5t-23.5 3.5t-23 2.5t-20 1q-56 0 -91 -20t-54.5 -50t-26.5 -65.5t-7 -66.5q0 -7 1 -24.5t7 -40t18 -47t34 -44.5t55 -33t81 -13q38 0 71 9t69 20l-4 -72q-8 -5 -27.5 -9.5t-42.5 -8t-44.5 -5.5t-33.5 -2v-56q20 0 36.5 -4t29.5 -13
q13 -10 20 -24.5t7 -35.5q0 -29 -13 -46t-32.5 -26.5t-42 -12.5t-40.5 -3q-12 0 -25 1.5t-25.5 3.5t-23 4.5t-16.5 5.5l6 52q37 -16 76 -16q10 0 21 1t20 4.5t15 11t6 20.5q0 23 -13 32t-36 9q-7 0 -13.5 -1.5t-13.5 -3.5v101q-60 9 -101 34.5t-65.5 61.5t-35.5 80t-11 90
q0 74 24 125.5t61.5 83.5t83.5 46.5t89 14.5t85 -6t82 -20v-135h-74z" />
    <glyph glyph-name="egrave" unicode="&#xe8;" horiz-adv-x="556" 
d="M423 314q0 30 -9.5 57.5t-27 48.5t-43 33t-57.5 12q-33 0 -60.5 -11.5t-47.5 -32t-31.5 -48t-13.5 -59.5h290zM133 251q1 -40 11 -75.5t33 -62t60 -42t92 -15.5q42 0 82.5 11t72.5 28l-3 -71q-14 -7 -35 -13.5t-44.5 -11.5t-47.5 -8t-43 -3q-122 0 -193 67t-71 202
q0 57 15.5 106.5t45.5 86t74.5 57.5t103.5 21q51 0 87.5 -14t61 -37t39.5 -53t22.5 -60.5t10 -60t2.5 -52.5h-376zM360 644l-49 -42l-187 156l52 44z" />
    <glyph glyph-name="eacute" unicode="&#xe9;" horiz-adv-x="556" 
d="M423 314q0 30 -9.5 57.5t-27 48.5t-43 33t-57.5 12q-33 0 -60.5 -11.5t-47.5 -32t-31.5 -48t-13.5 -59.5h290zM133 251q1 -40 11 -75.5t33 -62t60 -42t92 -15.5q42 0 82.5 11t72.5 28l-3 -71q-14 -7 -35 -13.5t-44.5 -11.5t-47.5 -8t-43 -3q-122 0 -193 67t-71 202
q0 57 15.5 106.5t45.5 86t74.5 57.5t103.5 21q51 0 87.5 -14t61 -37t39.5 -53t22.5 -60.5t10 -60t2.5 -52.5h-376zM380 802l52 -44l-187 -156l-49 42z" />
    <glyph glyph-name="ecircumflex" unicode="&#xea;" horiz-adv-x="556" 
d="M423 314q0 30 -9.5 57.5t-27 48.5t-43 33t-57.5 12q-33 0 -60.5 -11.5t-47.5 -32t-31.5 -48t-13.5 -59.5h290zM133 251q1 -40 11 -75.5t33 -62t60 -42t92 -15.5q42 0 82.5 11t72.5 28l-3 -71q-14 -7 -35 -13.5t-44.5 -11.5t-47.5 -8t-43 -3q-122 0 -193 67t-71 202
q0 57 15.5 106.5t45.5 86t74.5 57.5t103.5 21q51 0 87.5 -14t61 -37t39.5 -53t22.5 -60.5t10 -60t2.5 -52.5h-376zM105 654l144 138h56l144 -138l-49 -42l-123 123l-123 -123z" />
    <glyph glyph-name="edieresis" unicode="&#xeb;" horiz-adv-x="556" 
d="M423 314q0 30 -9.5 57.5t-27 48.5t-43 33t-57.5 12q-33 0 -60.5 -11.5t-47.5 -32t-31.5 -48t-13.5 -59.5h290zM133 251q1 -40 11 -75.5t33 -62t60 -42t92 -15.5q42 0 82.5 11t72.5 28l-3 -71q-14 -7 -35 -13.5t-44.5 -11.5t-47.5 -8t-43 -3q-122 0 -193 67t-71 202
q0 57 15.5 106.5t45.5 86t74.5 57.5t103.5 21q51 0 87.5 -14t61 -37t39.5 -53t22.5 -60.5t10 -60t2.5 -52.5h-376zM111 698q0 25 17 42t42 17t42 -17t17 -42t-17 -42t-42 -17t-42 17t-17 42zM329 698q0 25 17 42t42 17t42 -17t17 -42t-17 -42t-42 -17t-42 17t-17 42z" />
    <glyph glyph-name="igrave" unicode="&#xec;" 
d="M124 453h-94v63h176l-4 -453h82v-63h-246v63h82zM240 644l-49 -42l-187 156l52 44z" />
    <glyph glyph-name="iacute" unicode="&#xed;" 
d="M124 453h-94v63h176l-4 -453h82v-63h-246v63h82zM258 802l52 -44l-187 -156l-49 42z" />
    <glyph glyph-name="icircumflex" unicode="&#xee;" 
d="M124 453h-94v63h176l-4 -453h82v-63h-246v63h82zM-15 654l144 138h56l144 -138l-49 -42l-123 123l-123 -123z" />
    <glyph glyph-name="idieresis" unicode="&#xef;" 
d="M124 453h-94v63h176l-4 -453h82v-63h-246v63h82zM-11 698q0 25 17 42t42 17t42 -17t17 -42t-17 -42t-42 -17t-42 17t-17 42zM207 698q0 25 17 42t42 17t42 -17t17 -42t-17 -42t-42 -17t-42 17t-17 42z" />
    <glyph glyph-name="eth" unicode="&#xf0;" horiz-adv-x="594" 
d="M297 460q-41 0 -72 -16t-51.5 -43t-30.5 -64t-10 -79t10 -79t30.5 -64t51.5 -43t72 -16t72 16t51.5 43t30.5 64t10 79t-10 79t-30.5 64t-51.5 43t-72 16zM257 691q-20 16 -40.5 30.5t-34.5 22.5l68 33l36.5 -25.5t34.5 -26.5l97 52l38 -45l-89 -47q84 -81 132 -180
t48 -223q0 -65 -16.5 -119t-48.5 -93t-78.5 -60.5t-106.5 -21.5q-59 0 -105.5 19t-78.5 53.5t-49 81t-17 102.5q0 61 17 113.5t49 90t78.5 59t105.5 21.5q37 0 68 -12.5t57 -33.5l2 2q-21 46 -52 87.5t-69 79.5l-109 -58l-38 45z" />
    <glyph glyph-name="ntilde" unicode="&#xf1;" horiz-adv-x="667" 
d="M405 63h66q0 60 2 122t2 125q0 19 -2 44.5t-13.5 49t-35 40t-66.5 16.5q-27 0 -54.5 -9t-49.5 -30.5t-35.5 -57t-13.5 -87.5l-2 -213h75v-63h-224v63h66l4 390h-83v63h165q0 -15 -0.5 -33t-2.5 -29l-8 -52h2q8 29 27 52.5t43.5 40t54 25t58.5 8.5q53 0 87.5 -16.5
t54.5 -43.5t27.5 -62t7.5 -72q0 -66 -2 -138.5t-2 -132.5h76v-63h-224v63zM155 677q20 40 44 60t67 20q27 0 44.5 -7t38.5 -19q12 -7 29 -15t26 -8q20 0 35 14.5t26 29.5l48 -34l-22.5 -28t-22.5 -23t-27 -16t-35 -6q-29 0 -47.5 8t-41.5 22q-11 7 -23.5 13t-23.5 6
q-21 0 -34.5 -13t-24.5 -34z" />
    <glyph glyph-name="ograve" unicode="&#xf2;" horiz-adv-x="594" 
d="M47 244q0 61 17 113.5t49 90t78.5 59t105.5 21.5t105.5 -19t78.5 -53.5t49 -81.5t17 -102q0 -62 -17 -114t-49 -89.5t-78.5 -59t-105.5 -21.5t-105.5 19t-78.5 53.5t-49 81t-17 102.5zM133 258q0 -42 10 -79t30.5 -64t51.5 -43t72 -16t72 16t51.5 43t30.5 64t10 79
t-10 79t-30.5 64t-51.5 43t-72 16t-72 -16t-51.5 -43t-30.5 -64t-10 -79zM380 644l-49 -42l-187 156l52 44z" />
    <glyph glyph-name="oacute" unicode="&#xf3;" horiz-adv-x="594" 
d="M47 244q0 61 17 113.5t49 90t78.5 59t105.5 21.5t105.5 -19t78.5 -53.5t49 -81.5t17 -102q0 -62 -17 -114t-49 -89.5t-78.5 -59t-105.5 -21.5t-105.5 19t-78.5 53.5t-49 81t-17 102.5zM133 258q0 -42 10 -79t30.5 -64t51.5 -43t72 -16t72 16t51.5 43t30.5 64t10 79
t-10 79t-30.5 64t-51.5 43t-72 16t-72 -16t-51.5 -43t-30.5 -64t-10 -79zM398 802l52 -44l-187 -156l-49 42z" />
    <glyph glyph-name="ocircumflex" unicode="&#xf4;" horiz-adv-x="594" 
d="M47 244q0 61 17 113.5t49 90t78.5 59t105.5 21.5t105.5 -19t78.5 -53.5t49 -81.5t17 -102q0 -62 -17 -114t-49 -89.5t-78.5 -59t-105.5 -21.5t-105.5 19t-78.5 53.5t-49 81t-17 102.5zM133 258q0 -42 10 -79t30.5 -64t51.5 -43t72 -16t72 16t51.5 43t30.5 64t10 79
t-10 79t-30.5 64t-51.5 43t-72 16t-72 -16t-51.5 -43t-30.5 -64t-10 -79zM125 654l144 138h56l144 -138l-49 -42l-123 123l-123 -123z" />
    <glyph glyph-name="otilde" unicode="&#xf5;" horiz-adv-x="594" 
d="M47 244q0 61 17 113.5t49 90t78.5 59t105.5 21.5t105.5 -19t78.5 -53.5t49 -81.5t17 -102q0 -62 -17 -114t-49 -89.5t-78.5 -59t-105.5 -21.5t-105.5 19t-78.5 53.5t-49 81t-17 102.5zM133 258q0 -42 10 -79t30.5 -64t51.5 -43t72 -16t72 16t51.5 43t30.5 64t10 79
t-10 79t-30.5 64t-51.5 43t-72 16t-72 -16t-51.5 -43t-30.5 -64t-10 -79zM118 677q20 40 44 60t67 20q27 0 44.5 -7t38.5 -19q12 -7 29 -15t26 -8q20 0 35 14.5t26 29.5l48 -34l-22.5 -28t-22.5 -23t-27 -16t-35 -6q-29 0 -47.5 8t-41.5 22q-11 7 -23.5 13t-23.5 6
q-21 0 -34.5 -13t-24.5 -34z" />
    <glyph glyph-name="odieresis" unicode="&#xf6;" horiz-adv-x="594" 
d="M47 244q0 61 17 113.5t49 90t78.5 59t105.5 21.5t105.5 -19t78.5 -53.5t49 -81.5t17 -102q0 -62 -17 -114t-49 -89.5t-78.5 -59t-105.5 -21.5t-105.5 19t-78.5 53.5t-49 81t-17 102.5zM133 258q0 -42 10 -79t30.5 -64t51.5 -43t72 -16t72 16t51.5 43t30.5 64t10 79
t-10 79t-30.5 64t-51.5 43t-72 16t-72 -16t-51.5 -43t-30.5 -64t-10 -79zM129 698q0 25 17 42t42 17t42 -17t17 -42t-17 -42t-42 -17t-42 17t-17 42zM347 698q0 25 17 42t42 17t42 -17t17 -42t-17 -42t-42 -17t-42 17t-17 42z" />
    <glyph glyph-name="divide" unicode="&#xf7;" horiz-adv-x="600" 
d="M47 287h506v-68h-506v68zM238 456q0 26 18 44t44 18t44 -18t18 -44t-18 -44t-44 -18t-44 18t-18 44zM238 50q0 26 18 44t44 18t44 -18t18 -44t-18 -44t-44 -18t-44 18t-18 44z" />
    <glyph glyph-name="oslash" unicode="&#xf8;" horiz-adv-x="594" 
d="M372 442q-30 18 -75 18q-41 0 -72 -16t-51.5 -43t-30.5 -64t-10 -79q0 -43 10.5 -80.5t31.5 -63.5zM221 75q33 -19 76 -19q41 0 72 16t51.5 43t30.5 64t10 79q0 44 -11 81.5t-32 64.5zM133 44q-42 33 -64 85t-22 115q0 61 17 113.5t49 90t78.5 59t105.5 21.5
q63 0 112 -23l57 94l51 -30l-57 -95q42 -34 64.5 -86t22.5 -116q0 -62 -17 -114t-49 -89.5t-78.5 -59t-105.5 -21.5q-66 0 -114 24l-60 -101l-51 32z" />
    <glyph glyph-name="ugrave" unicode="&#xf9;" horiz-adv-x="648" 
d="M31 516h165q0 -71 -2 -143.5t-2 -161.5q0 -28 3.5 -56t15.5 -50t34.5 -35.5t60.5 -13.5q37 0 63 12.5t43 32.5t26.5 45.5t13.5 52t5 51t1 43.5v160h-81v63h165l-4 -453h72v-63h-153q0 15 0.5 33t2.5 29l8 52h-2q-8 -23 -24 -45.5t-38.5 -40.5t-50.5 -29t-61 -11
q-56 0 -91 16.5t-55.5 45t-28 67t-7.5 82.5q0 71 1.5 132.5t2.5 121.5h-83v63zM407 644l-49 -42l-187 156l52 44z" />
    <glyph glyph-name="uacute" unicode="&#xfa;" horiz-adv-x="648" 
d="M31 516h165q0 -71 -2 -143.5t-2 -161.5q0 -28 3.5 -56t15.5 -50t34.5 -35.5t60.5 -13.5q37 0 63 12.5t43 32.5t26.5 45.5t13.5 52t5 51t1 43.5v160h-81v63h165l-4 -453h72v-63h-153q0 15 0.5 33t2.5 29l8 52h-2q-8 -23 -24 -45.5t-38.5 -40.5t-50.5 -29t-61 -11
q-56 0 -91 16.5t-55.5 45t-28 67t-7.5 82.5q0 71 1.5 132.5t2.5 121.5h-83v63zM428 802l52 -44l-187 -156l-49 42z" />
    <glyph glyph-name="ucircumflex" unicode="&#xfb;" horiz-adv-x="648" 
d="M31 516h165q0 -71 -2 -143.5t-2 -161.5q0 -28 3.5 -56t15.5 -50t34.5 -35.5t60.5 -13.5q37 0 63 12.5t43 32.5t26.5 45.5t13.5 52t5 51t1 43.5v160h-81v63h165l-4 -453h72v-63h-153q0 15 0.5 33t2.5 29l8 52h-2q-8 -23 -24 -45.5t-38.5 -40.5t-50.5 -29t-61 -11
q-56 0 -91 16.5t-55.5 45t-28 67t-7.5 82.5q0 71 1.5 132.5t2.5 121.5h-83v63zM152 654l144 138h56l144 -138l-49 -42l-123 123l-123 -123z" />
    <glyph glyph-name="udieresis" unicode="&#xfc;" horiz-adv-x="648" 
d="M31 516h165q0 -71 -2 -143.5t-2 -161.5q0 -28 3.5 -56t15.5 -50t34.5 -35.5t60.5 -13.5q37 0 63 12.5t43 32.5t26.5 45.5t13.5 52t5 51t1 43.5v160h-81v63h165l-4 -453h72v-63h-153q0 15 0.5 33t2.5 29l8 52h-2q-8 -23 -24 -45.5t-38.5 -40.5t-50.5 -29t-61 -11
q-56 0 -91 16.5t-55.5 45t-28 67t-7.5 82.5q0 71 1.5 132.5t2.5 121.5h-83v63zM156 698q0 25 17 42t42 17t42 -17t17 -42t-17 -42t-42 -17t-42 17t-17 42zM374 698q0 25 17 42t42 17t42 -17t17 -42t-17 -42t-42 -17t-42 17t-17 42z" />
    <glyph glyph-name="yacute" unicode="&#xfd;" horiz-adv-x="574" 
d="M10 516h218v-63h-65l123 -321q5 -14 8.5 -29.5l5.5 -24.5h2l5.5 24.5t8.5 29.5l115 321h-73v63h206v-63h-57l-158 -435q-27 -76 -53.5 -129.5t-56.5 -87t-66.5 -49t-85.5 -15.5q-19 0 -34.5 2.5t-26.5 6.5v68q9 -3 26 -6t32 -3q44 0 87 29.5t72 100.5l17 42l-189 476h-61
v63zM408 802l52 -44l-187 -156l-49 42z" />
    <glyph glyph-name="thorn" unicode="&#xfe;" horiz-adv-x="630" 
d="M119 706h-87v63h170l-2 -271q0 -9 -1 -22t-2.5 -26.5t-3.5 -26.5t-3 -21h2q8 27 24.5 50t40.5 40t54 26.5t64 9.5q54 0 93 -19.5t64.5 -53.5t38 -79.5t12.5 -96.5q0 -46 -13 -97.5t-45 -94.5t-85.5 -71t-134.5 -28q-27 0 -55.5 5t-50.5 13l-2 -194h86v-63h-242v63h74z
M197 80q34 -12 57.5 -18t52.5 -6q51 0 87 19t59 49.5t33.5 70.5t10.5 82q0 48 -11.5 82.5t-31 57t-45.5 33t-56 10.5q-27 0 -54 -9t-48.5 -30.5t-35 -57t-14.5 -87.5z" />
    <glyph glyph-name="ydieresis" unicode="&#xff;" horiz-adv-x="574" 
d="M10 516h218v-63h-65l123 -321q5 -14 8.5 -29.5l5.5 -24.5h2l5.5 24.5t8.5 29.5l115 321h-73v63h206v-63h-57l-158 -435q-27 -76 -53.5 -129.5t-56.5 -87t-66.5 -49t-85.5 -15.5q-19 0 -34.5 2.5t-26.5 6.5v68q9 -3 26 -6t32 -3q44 0 87 29.5t72 100.5l17 42l-189 476h-61
v63zM119 698q0 25 17 42t42 17t42 -17t17 -42t-17 -42t-42 -17t-42 17t-17 42zM337 698q0 25 17 42t42 17t42 -17t17 -42t-17 -42t-42 -17t-42 17t-17 42z" />
    <glyph glyph-name="dotlessi" unicode="&#x131;" 
d="M124 453h-94v63h176l-4 -453h82v-63h-246v63h82z" />
    <glyph glyph-name="OE" unicode="&#x152;" horiz-adv-x="1019" 
d="M633 63h253l6 109h74l-6 -172h-359q-42 0 -84 -3l-43 -2t-43 -1q-92 0 -162.5 23.5t-118.5 68.5t-72.5 110t-24.5 148q0 85 26.5 152.5t77.5 114t125 71t168 24.5q41 0 79 -3l38 -2t38 -1h349v-162h-74v99h-243l-2 -246h230v-63h-230zM551 637q-28 3 -56.5 4.5t-54.5 1.5
q-68 0 -122.5 -19.5t-92.5 -57.5t-59 -93t-21 -127q0 -73 21 -127t61 -90t96 -54t127 -18q11 0 26.5 1t30 2.5t26 2t14.5 0.5z" />
    <glyph glyph-name="oe" unicode="&#x153;" horiz-adv-x="907" 
d="M128 258q0 -38 8 -74t27.5 -64.5t50.5 -46t78 -17.5q48 0 75.5 19.5t41.5 50t18 69t4 77.5t-4.5 73.5t-19.5 60t-42.5 40t-72.5 14.5q-41 0 -72 -17.5t-51.5 -46t-30.5 -65t-10 -73.5zM779 314q0 30 -9 57.5t-26 48.5t-41 33t-53 12q-35 0 -61 -11.5t-44 -32t-27 -48
t-9 -59.5h270zM509 251q0 -22 3.5 -55t20 -64t52 -53.5t100.5 -22.5q42 0 82.5 11t72.5 28l-3 -71q-14 -7 -35 -13.5t-44.5 -11.5t-47.5 -8t-43 -3q-35 0 -66 6.5t-57 21t-45.5 38t-31.5 56.5h-2q-20 -63 -64 -92.5t-119 -29.5q-59 0 -104 19t-75 54.5t-45.5 85t-15.5 111.5
q0 56 17 105.5t49 86t78.5 57.5t105.5 21q74 0 116.5 -27.5t67.5 -81.5q6 15 19 34t34 35.5t51 28t70 11.5q49 0 84 -14t59 -37t38 -53t21.5 -60.5t10 -60t2.5 -52.5h-356z" />
    <glyph glyph-name="Scaron" unicode="&#x160;" horiz-adv-x="593" 
d="M66 177h82v-95q12 -7 28.5 -12t35.5 -8t37.5 -4.5t35.5 -1.5q75 0 120.5 33.5t45.5 96.5q0 35 -16.5 57.5t-43.5 37.5t-61.5 24.5l-70.5 20t-70.5 23t-61.5 33.5t-43.5 52.5t-16.5 78.5q0 32 11 67t40 64.5t79.5 48.5t128.5 19q19 0 44.5 -2.5t52 -6.5t50.5 -10.5
t41 -13.5v-141h-78v87q-10 4 -24.5 7.5t-31 6t-33 4t-28.5 1.5q-28 0 -56.5 -6t-51.5 -20t-37.5 -37.5t-14.5 -57.5q0 -45 28.5 -68t71 -38t92.5 -26.5t92.5 -33t71 -58.5t28.5 -101q0 -58 -22.5 -98t-60 -65t-85.5 -36t-99 -11q-43 0 -76 4.5t-57.5 10t-43 11.5t-33.5 9
v154zM175 922l123 -123l123 123l49 -42l-144 -138h-56l-144 138z" />
    <glyph glyph-name="scaron" unicode="&#x161;" horiz-adv-x="500" 
d="M423 373h-74l-4 73q-7 6 -19 9.5t-25 6t-25.5 3t-21.5 0.5q-20 0 -41 -3.5t-38 -12.5t-28.5 -24.5t-11.5 -38.5q0 -21 9 -35t25.5 -24t39.5 -16t52 -11q98 -17 142 -50t44 -97q0 -35 -12 -65t-37.5 -52t-65.5 -35t-96 -13q-21 0 -47 2.5t-50.5 6.5t-46 10t-33.5 12
l-4 132h74l4 -77q12 -6 27 -10t30.5 -7t31 -4.5t28.5 -1.5q20 0 41 4.5t38.5 15t28.5 26.5t11 40q0 19 -9 32.5t-24.5 22.5t-35 15t-40.5 11q-52 11 -90.5 22.5t-64.5 28.5t-39 41.5t-13 62.5q0 31 11 59t35 49.5t62.5 34t94.5 12.5q16 0 38 -2.5t44.5 -6.5t44 -10t36.5 -12
zM128 792l123 -123l123 123l49 -42l-144 -138h-56l-144 138z" />
    <glyph glyph-name="Ydieresis" unicode="&#x178;" horiz-adv-x="722" 
d="M8 700h242v-63h-73q15 -15 24 -28l173 -240l169 236q6 9 12.5 16.5t14.5 15.5h-86v63h230v-63h-64l-239 -335l-3 -239h79v-63h-238v63h73l3 238l-245 336h-72v63zM203 828q0 25 17 42t42 17t42 -17t17 -42t-17 -42t-42 -17t-42 17t-17 42zM421 828q0 25 17 42t42 17
t42 -17t17 -42t-17 -42t-42 -17t-42 17t-17 42z" />
    <glyph glyph-name="Zcaron" unicode="&#x17d;" horiz-adv-x="648" 
d="M52 59l412 544q7 9 14.5 17.5t15.5 16.5h-341l-6 -105h-74l6 168h515v-63l-406 -538q-7 -9 -15 -18l-16 -18h359l6 106h74l-6 -169h-538v59zM198 922l123 -123l123 123l49 -42l-144 -138h-56l-144 138z" />
    <glyph glyph-name="zcaron" unicode="&#x17e;" horiz-adv-x="537" 
d="M478 0h-427v60l287 344q11 13 23.5 25l24.5 24h-244l-4 -83h-74l4 146h416v-57l-297 -357q-9 -11 -19 -20t-20 -19h256l8 87h74zM146 792l123 -123l123 123l49 -42l-144 -138h-56l-144 138z" />
    <glyph glyph-name="florin" unicode="&#x192;" horiz-adv-x="556" 
d="M120 344v63h110l6 73q4 56 18 99.5t41 73t67.5 44.5t99.5 15q9 0 22 -1t25.5 -2.5t22.5 -3.5t14 -3l-6 -66q-13 4 -36 6t-37 2q-41 0 -68.5 -10t-45 -31t-27 -52t-12.5 -73l-6 -71h142v-63h-146l-20 -255l-5 -48.5t-10.5 -60t-21 -63t-35.5 -56.5t-54 -40.5t-77 -15.5
q-30 0 -53 6t-30 8l7 68q10 -5 28 -9.5t31 -4.5q42 0 68.5 19.5t41.5 51.5t22 73t10 84l20 243h-106z" />
    <glyph glyph-name="uni0237" unicode="&#x237;" 
d="M215 129q-1 -65 -6.5 -111.5t-15.5 -81t-24 -59.5t-32 -45q-35 -42 -81.5 -63t-98.5 -32l-12 66q45 12 77 31.5t58 50.5q27 32 39 88.5t14 154.5l4 325h-95v63h177z" />
    <glyph glyph-name="circumflex" unicode="&#x2c6;" 
d="M-15 654l144 138h56l144 -138l-49 -42l-123 123l-123 -123z" />
    <glyph glyph-name="tilde" unicode="&#x2dc;" 
d="M-22 677q20 40 44 60t67 20q27 0 44.5 -7t38.5 -19q12 -7 29 -15t26 -8q20 0 35 14.5t26 29.5l48 -34l-22.5 -28t-22.5 -23t-27 -16t-35 -6q-29 0 -47.5 8t-41.5 22q-11 7 -23.5 13t-23.5 6q-21 0 -34.5 -13t-24.5 -34z" />
    <glyph glyph-name="endash" unicode="&#x2013;" horiz-adv-x="500" 
d="M0 308h500v-68h-500v68z" />
    <glyph glyph-name="emdash" unicode="&#x2014;" horiz-adv-x="1000" 
d="M0 308h1000v-68h-1000v68z" />
    <glyph glyph-name="quoteleft" unicode="&#x2018;" horiz-adv-x="278" 
d="M210 740q-27 -29 -41.5 -54t-14.5 -50q0 -21 7 -32.5t16 -20.5t16 -19t7 -27q0 -24 -14.5 -39t-40.5 -15q-39 0 -58 30t-19 69q0 56 25.5 102t79.5 93z" />
    <glyph glyph-name="quoteright" unicode="&#x2019;" horiz-adv-x="278" 
d="M69 520q27 29 41.5 54t14.5 50q0 21 -7 32.5t-16 20.5t-16 19t-7 27q0 24 14.5 39t40.5 15q39 0 58 -30t19 -69q0 -56 -25.5 -102t-79.5 -93z" />
    <glyph glyph-name="quotesinglbase" unicode="&#x201a;" horiz-adv-x="278" 
d="M68 -144l34 41q11 14 16.5 28t5.5 37q0 16 -5 25t-16 21q-12 14 -18.5 23.5t-6.5 26.5q0 24 16 39t41 15q38 0 56.5 -30t18.5 -69q0 -52 -18.5 -91.5t-55.5 -74.5l-30 -29z" />
    <glyph glyph-name="quotedblleft" unicode="&#x201c;" horiz-adv-x="444" 
d="M387 740q-27 -29 -41.5 -54t-14.5 -50q0 -21 7 -32.5t16 -20.5t16 -19t7 -27q0 -24 -14.5 -39t-40.5 -15q-39 0 -58 30t-19 69q0 56 25.5 102t79.5 93zM197 740q-27 -29 -41.5 -54t-14.5 -50q0 -21 7 -32.5t16 -20.5t16 -19t7 -27q0 -24 -14.5 -39t-40.5 -15
q-39 0 -58 30t-19 69q0 56 25.5 102t79.5 93z" />
    <glyph glyph-name="quotedblright" unicode="&#x201d;" horiz-adv-x="444" 
d="M57 520q27 29 41.5 54t14.5 50q0 21 -7 32.5t-16 20.5t-16 19t-7 27q0 24 14.5 39t40.5 15q39 0 58 -30t19 -69q0 -56 -25.5 -102t-79.5 -93zM247 520q27 29 41.5 54t14.5 50q0 21 -7 32.5t-16 20.5t-16 19t-7 27q0 24 14.5 39t40.5 15q39 0 58 -30t19 -69
q0 -56 -25.5 -102t-79.5 -93z" />
    <glyph glyph-name="quotedblbase" unicode="&#x201e;" horiz-adv-x="444" 
d="M56 -144l34 41q11 14 16.5 28t5.5 37q0 16 -5 25t-16 21q-12 14 -18.5 23.5t-6.5 26.5q0 24 16 39t41 15q38 0 56.5 -30t18.5 -69q0 -52 -18.5 -91.5t-55.5 -74.5l-30 -29zM246 -144l34 41q11 14 16.5 28t5.5 37q0 16 -5 25t-16 21q-12 14 -18.5 23.5t-6.5 26.5
q0 24 16 39t41 15q38 0 56.5 -30t18.5 -69q0 -52 -18.5 -91.5t-55.5 -74.5l-30 -29z" />
    <glyph glyph-name="dagger" unicode="&#x2020;" horiz-adv-x="556" 
d="M35 478h205l1 222h78l-1 -222h203v-63h-203l-3 -610h-78l3 610h-205v63z" />
    <glyph glyph-name="daggerdbl" unicode="&#x2021;" horiz-adv-x="556" 
d="M241 700h78l-1 -227h203v-63h-203l-2 -292h205v-63h-205l-2 -250h-78l2 250h-203v63h203l2 292h-205v63h205z" />
    <glyph glyph-name="bullet" unicode="&#x2022;" horiz-adv-x="500" 
d="M75 350q0 36 13.5 68t37.5 56t56 37.5t68 13.5t68 -13.5t56 -37.5t37.5 -56t13.5 -68t-13.5 -68t-37.5 -56t-56 -37.5t-68 -13.5t-68 13.5t-56 37.5t-37.5 56t-13.5 68z" />
    <glyph glyph-name="ellipsis" unicode="&#x2026;" horiz-adv-x="1000" 
d="M105 50q0 26 18 44t44 18t44 -18t18 -44t-18 -44t-44 -18t-44 18t-18 44zM438 50q0 26 18 44t44 18t44 -18t18 -44t-18 -44t-44 -18t-44 18t-18 44zM771 50q0 26 18 44t44 18t44 -18t18 -44t-18 -44t-44 -18t-44 18t-18 44z" />
    <glyph glyph-name="perthousand" unicode="&#x2030;" horiz-adv-x="1167" 
d="M978 -12q-36 0 -66 12.5t-52 34t-34 52t-12 66.5t12 66.5t34 52t52 34t66 12.5q34 0 63 -12.5t50 -34t33 -52t12 -66.5t-12 -66.5t-33 -52t-50 -34t-63 -12.5zM975 51q22 0 38.5 8.5t27 22.5t16 32.5t5.5 38.5t-5.5 38.5t-16 32.5t-27 22.5t-38.5 8.5t-38.5 -8.5
t-27 -22.5t-16 -32.5t-5.5 -38.5t5.5 -38.5t16 -32.5t27 -22.5t38.5 -8.5zM195 382q-36 0 -66 12.5t-52 34t-34 52t-12 66.5t12 66.5t34 52t52 34t66 12.5q34 0 63 -12.5t50 -34t33 -52t12 -66.5t-12 -66.5t-33 -52t-50 -34t-63 -12.5zM192 445q22 0 38.5 8.5t27 22.5
t16 32.5t5.5 38.5t-5.5 38.5t-16 32.5t-27 22.5t-38.5 8.5t-38.5 -8.5t-27 -22.5t-16 -32.5t-5.5 -38.5t5.5 -38.5t16 -32.5t27 -22.5t38.5 -8.5zM621 -12q-36 0 -66 12.5t-52 34t-34 52t-12 66.5t12 66.5t34 52t52 34t66 12.5q34 0 63 -12.5t50 -34t33 -52t12 -66.5
t-12 -66.5t-33 -52t-50 -34t-63 -12.5zM618 51q22 0 38.5 8.5t27 22.5t16 32.5t5.5 38.5t-5.5 38.5t-16 32.5t-27 22.5t-38.5 8.5t-38.5 -8.5t-27 -22.5t-16 -32.5t-5.5 -38.5t5.5 -38.5t16 -32.5t27 -22.5t38.5 -8.5zM603 756l51 -34l-450 -778l-51 34z" />
    <glyph glyph-name="guilsinglleft" unicode="&#x2039;" horiz-adv-x="296" 
d="M185 449l57 -45l-114 -130l114 -130l-57 -45l-131 147v56z" />
    <glyph glyph-name="guilsinglright" unicode="&#x203a;" horiz-adv-x="296" 
d="M111 99l-57 45l114 130l-114 130l57 45l131 -147v-56z" />
    <glyph glyph-name="Euro" unicode="&#x20ac;" horiz-adv-x="566" 
d="M576 549h-64v74q-54 17 -108 17q-92 0 -145.5 -51.5t-74.5 -136.5h332l-28 -63h-314q-1 -5 -1.5 -10t-0.5 -10v-20v-10q0 -9 1 -10h295l-29 -63h-259q10 -46 27.5 -84t44 -65.5t64 -42.5t88.5 -15q43 0 84.5 8.5t81.5 24.5l-2 -72q-42 -17 -83 -23t-86 -6
q-133 0 -210.5 72.5t-95.5 202.5h-78l29 63h44q-1 1 -1 9v10q0 11 0.5 20.5t1.5 20.5h-74l29 63h55q12 58 38 105t65 80.5t89.5 51.5t110.5 18q86 0 176 -35z" />
    <glyph glyph-name="trademark" unicode="&#x2122;" horiz-adv-x="990" 
d="M164 632h-123v68h332v-68h-123v-348h-86v348zM837 612h-2l-121 -328h-56l-121 328h-2v-328h-82v416h121l112 -296l112 296h121v-416h-82v328z" />
    <glyph glyph-name="uni25FC" unicode="&#x25fc;" horiz-adv-x="515" 
d="M0 515h515v-515h-515v515z" />
    <glyph glyph-name="glyph205" 
d="M34 792l123 -123l123 123l49 -42l-144 -138h-56l-144 138z" />
    <glyph glyph-name="glyph206" 
d="M57 700q0 42 29 71t71 29t71 -29t29 -71t-29 -71t-71 -29t-71 29t-29 71zM114 700q0 -24 10 -39.5t33 -15.5t33 15.5t10 39.5q0 55 -43 55q-22 0 -32.5 -16t-10.5 -39z" />
    <glyph glyph-name="glyph225" 
d="M240 774l-49 -42l-187 156l52 44z" />
    <glyph glyph-name="glyph226" 
d="M258 932l52 -44l-187 -156l-49 42z" />
    <glyph glyph-name="glyph227" 
d="M-15 784l144 138h56l144 -138l-49 -42l-123 123l-123 -123z" />
    <glyph glyph-name="glyph228" 
d="M34 922l123 -123l123 123l49 -42l-144 -138h-56l-144 138z" />
    <glyph glyph-name="glyph229" 
d="M-22 807q20 40 44 60t67 20q27 0 44.5 -7t38.5 -19q12 -7 29 -15t26 -8q20 0 35 14.5t26 29.5l48 -34l-22.5 -28t-22.5 -23t-27 -16t-35 -6q-29 0 -47.5 8t-41.5 22q-11 7 -23.5 13t-23.5 6q-21 0 -34.5 -13t-24.5 -34z" />
    <glyph glyph-name="glyph230" 
d="M-11 828q0 25 17 42t42 17t42 -17t17 -42t-17 -42t-42 -17t-42 17t-17 42zM207 828q0 25 17 42t42 17t42 -17t17 -42t-17 -42t-42 -17t-42 17t-17 42z" />
    <glyph glyph-name="glyph231" 
d="M57 830q0 21 7.5 39t21 31.5t32 21.5t39.5 8q42 0 71 -29t29 -71q0 -21 -8 -39.5t-21.5 -32t-31.5 -21t-39 -7.5q-43 0 -71.5 28.5t-28.5 71.5zM114 830q0 -24 10 -39.5t33 -15.5t33 15.5t10 39.5q0 55 -43 55q-22 0 -32.5 -16t-10.5 -39z" />
    </font>
</defs>
</svg>
